<svg xmlns="http://www.w3.org/2000/svg">
<defs>
<font id="b8678aa7f13c91e7ac1aaa924617bce8" horiz-adv-x='1024' >
  <font-face 
    font-family="GTPressuraMono-Bold"
    font-weight="700"
    font-stretch="normal"
    units-per-em="1000"
    panose-1="2 0 8 6 0 0 0 2 0 4"
    ascent="750"
    descent="-250"
    x-height="500"
    cap-height="700"
    bbox="-268.63 -305 634 1080"
    underline-thickness="50"
    underline-position="-50"
    unicode-range="U+0020-FB02"
  />
<missing-glyph 
d="M184 120q-14 0 -19 -9t-9.5 -19.5t-12.5 -19.5t-27 -9q-21 0 -36.5 13.5t-15.5 31.5t6.5 27t14.5 17t14.5 19t6.5 34q0 17 -8.5 27.5t-19.5 10.5q-12 0 -15.5 -3.5t-14.5 -3.5q-15 0 -22.5 16t-7.5 36q0 14 9.5 26.5t23.5 12.5q10 0 14.5 -5.5t12.5 -5.5q15 0 21 15t6 25
q0 12 -5 24.5t-5 24.5q0 20 11.5 28.5t28.5 8.5q9 0 9 8q0 5 -4 10.5t-4 13.5q0 5 5.5 9.5t10.5 4.5q8 0 13 -5.5t9 -12t8.5 -12t11.5 -5.5q12 0 15 8.5t5 19t7 19t22 8.5q16 0 23.5 -7.5t13.5 -16.5t13.5 -16.5t21.5 -7.5q21 0 28 11.5t7 36.5q0 28 15 40.5t38 12.5
q22 0 34.5 -13t12.5 -35q0 -16 -7.5 -26t-16.5 -16.5t-16.5 -12.5t-7.5 -14q0 -14 12 -22t27 -16.5t27 -21t12 -36.5q0 -14 -5 -22.5t-11 -15t-11 -14t-5 -20.5q0 -10 9.5 -18t34.5 -8q22 0 31 -13t9 -32q0 -22 -15 -37t-37 -15q-12 0 -19.5 8t-15 17t-16 17t-21.5 8
q-11 0 -18 -5.5t-7 -15.5q0 -8 3 -12.5t7 -8.5t7 -10t3 -18q0 -13 -8.5 -23t-26.5 -10q-9 0 -17.5 4.5t-18 10.5t-20.5 10.5t-24 4.5q-9 0 -17.5 -7t-8.5 -24q0 -12 -6.5 -19.5t-17.5 -7.5q-9 0 -12.5 7.5t-7.5 16.5t-11 16.5t-23 7.5zM298 340q0 -17 11.5 -28.5t28.5 -11.5
t30 11.5t13 28.5t-13 32t-30 15t-28.5 -15t-11.5 -32zM281 226q-14 0 -26 5.5t-22 14.5q-5 4 -7 1t2 -8q8 -12 20 -20.5t33 -8.5q20 0 29.5 11.5t14.5 22.5q2 5 -1 6.5t-5 -2.5q-12 -22 -38 -22zM214 335q0 9 4 15t10 6t10 -6t4 -15t-4 -15t-10 -6t-10 6t-4 15zM310 340
q0 9 4 15t10 6t10 -6t4 -15t-4 -15t-10 -6t-10 6t-4 15zM178 340q0 -21 9.5 -35.5t26.5 -14.5t28.5 14.5t11.5 35.5t-11.5 35.5t-28.5 14.5t-26.5 -14.5t-9.5 -35.5zM85 520q0 14 8.5 24t20.5 10q10 0 17 -10t7 -24t-7 -24t-17 -10q-12 0 -20.5 10t-8.5 24z" />
    <glyph glyph-name="IJ" unicode="IJ" 
d="M45 0q-8 0 -14 6t-6 14v95q0 8 6 14t14 6h40q10 0 10 10v410q0 10 -10 10h-30q-8 0 -14 6t-6 14v95q0 8 6 14t14 6h220q8 0 14 -6t6 -14v-95q0 -8 -6 -14t-14 -6h-30q-10 0 -10 -10v-410q0 -10 10 -10h39q41 0 65.5 24.5t24.5 66.5v454q0 8 6 14t14 6h101q8 0 14 -6
t6 -14v-458q0 -46 -16.5 -86.5t-46.5 -70.5t-73 -47.5t-95 -17.5h-239z" />
    <glyph glyph-name="ij" unicode="ij" 
d="M249 -210q-8 0 -14 6t-6 14v90q0 8 6 14t14 6h42q25 0 42.5 12.5t17.5 37.5v401q0 10 -10 10h-90v-365q0 -16 -16 -16h-98q-16 0 -16 16v347q0 10 -10 10h-60q-8 0 -14 6t-6 14v87q0 8 6 14t14 6h414q7 0 11.5 -5t4.5 -11v-516q0 -39 -15 -71.5t-41 -56.5t-60.5 -37
t-73.5 -13h-42zM487 586q0 -16 -16 -16h-108q-16 0 -16 16v108q0 6 4.5 11t11.5 5h108q7 0 11.5 -5t4.5 -11v-108zM257 586q0 -16 -16 -16h-108q-16 0 -16 16v108q0 6 4.5 11t11.5 5h108q7 0 11.5 -5t4.5 -11v-108z" />
    <glyph glyph-name="napostrophe" unicode="&#x22;n" 
d="M185 476q11 0 21 5.5t22.5 12t28 12t38.5 5.5q39 0 73 -14.5t59 -39.5t39 -59t14 -73v-305q0 -8 -6 -14t-14 -6h-90q-8 0 -14 6t-6 14v306q0 25 -19.5 42t-55.5 17q-35 0 -55 -16t-20 -39v-310q0 -8 -6 -14t-14 -6h-90q-8 0 -14 6t-6 14v460q0 8 6 14t14 6h50
q9 0 14 -3.5t9 -8.5q5 -5 9.5 -8.5t12.5 -3.5zM-31 560q-8 0 -14 6t-6 14v100q0 8 6 14t14 6h100q8 0 14 -6t6 -14v-97q0 -20 -6.5 -37.5t-15.5 -31.5l-34 -54q-5 -7 -12 -13.5t-22 -6.5h-10q-15 0 -21.5 12t0.5 26l34 69q3 5 -0.5 9t-8.5 4h-24z" />
    <glyph glyph-name="f_f" unicode="ff" 
d="M500 590q-35 0 -52.5 -20t-17.5 -45v-18q0 -10 10 -10h60q8 0 14 -6t6 -14v-80q0 -8 -6 -14t-14 -6h-60q-10 0 -10 -10v-347q0 -8 -6 -14t-14 -6h-80q-8 0 -14 6t-6 14v347q0 10 -10 10h-78q-10 0 -10 -10v-347q0 -8 -6 -14t-14 -6h-80q-8 0 -14 6t-6 14v347q0 10 -10 10
h-30q-8 0 -14 6t-6 14v80q0 8 6 14t14 6h30q10 0 10 10v20q0 39 15 72.5t41 58t60.5 38.5t73.5 14q8 0 14 -6t6 -14v-80q0 -8 -6 -14t-14 -6q-36 0 -53 -20t-17 -45v-18q0 -10 7 -10h83q8 0 8 10v20q0 39 15 72.5t41 58t60.5 38.5t73.5 14q8 0 14 -6t6 -14v-80q0 -8 -6 -14
t-14 -6z" />
    <glyph glyph-name="fi" unicode="fi" 
d="M371 367q0 10 -8 10h-112q-10 0 -10 -10v-347q0 -8 -6 -14t-14 -6h-90q-8 0 -14 6t-6 14v347q0 10 -10 10h-50q-8 0 -14 6t-6 14v80q0 8 6 14t14 6h50q10 0 10 10v20q0 39 15 72.5t41 58t60.5 38.5t73.5 14h186q8 0 14 -6t6 -14v-90q0 -8 -6 -14t-14 -6h-186
q-25 0 -42.5 -15t-17.5 -40v-18q0 -10 10 -10h234q7 0 11.5 -5t4.5 -11v-461q0 -8 -6 -14t-14 -6h-90q-8 0 -14 6t-6 14v347z" />
    <glyph glyph-name="fl" unicode="fl" 
d="M230 377q-10 0 -10 -10v-347q0 -8 -6 -14t-14 -6h-90q-8 0 -14 6t-6 14v347q0 10 -10 10h-40q-8 0 -14 6t-6 14v80q0 8 6 14t14 6h40q10 0 10 10v20q0 39 15 72.5t41 58t60.5 38.5t73.5 14q8 0 14 -6t6 -14v-90q0 -8 -6 -14t-14 -6q-25 0 -42.5 -15t-17.5 -40v-18
q0 -10 10 -10h120q10 0 10 10v179q0 8 6 14t14 6h80q8 0 14 -6t6 -14v-666q0 -8 -6 -14t-14 -6h-80q-8 0 -14 6t-6 14v347q0 10 -10 10h-120z" />
    <glyph glyph-name=".notdef" 
d="M184 120q-14 0 -19 -9t-9.5 -19.5t-12.5 -19.5t-27 -9q-21 0 -36.5 13.5t-15.5 31.5t6.5 27t14.5 17t14.5 19t6.5 34q0 17 -8.5 27.5t-19.5 10.5q-12 0 -15.5 -3.5t-14.5 -3.5q-15 0 -22.5 16t-7.5 36q0 14 9.5 26.5t23.5 12.5q10 0 14.5 -5.5t12.5 -5.5q15 0 21 15t6 25
q0 12 -5 24.5t-5 24.5q0 20 11.5 28.5t28.5 8.5q9 0 9 8q0 5 -4 10.5t-4 13.5q0 5 5.5 9.5t10.5 4.5q8 0 13 -5.5t9 -12t8.5 -12t11.5 -5.5q12 0 15 8.5t5 19t7 19t22 8.5q16 0 23.5 -7.5t13.5 -16.5t13.5 -16.5t21.5 -7.5q21 0 28 11.5t7 36.5q0 28 15 40.5t38 12.5
q22 0 34.5 -13t12.5 -35q0 -16 -7.5 -26t-16.5 -16.5t-16.5 -12.5t-7.5 -14q0 -14 12 -22t27 -16.5t27 -21t12 -36.5q0 -14 -5 -22.5t-11 -15t-11 -14t-5 -20.5q0 -10 9.5 -18t34.5 -8q22 0 31 -13t9 -32q0 -22 -15 -37t-37 -15q-12 0 -19.5 8t-15 17t-16 17t-21.5 8
q-11 0 -18 -5.5t-7 -15.5q0 -8 3 -12.5t7 -8.5t7 -10t3 -18q0 -13 -8.5 -23t-26.5 -10q-9 0 -17.5 4.5t-18 10.5t-20.5 10.5t-24 4.5q-9 0 -17.5 -7t-8.5 -24q0 -12 -6.5 -19.5t-17.5 -7.5q-9 0 -12.5 7.5t-7.5 16.5t-11 16.5t-23 7.5zM298 340q0 -17 11.5 -28.5t28.5 -11.5
t30 11.5t13 28.5t-13 32t-30 15t-28.5 -15t-11.5 -32zM281 226q-14 0 -26 5.5t-22 14.5q-5 4 -7 1t2 -8q8 -12 20 -20.5t33 -8.5q20 0 29.5 11.5t14.5 22.5q2 5 -1 6.5t-5 -2.5q-12 -22 -38 -22zM214 335q0 9 4 15t10 6t10 -6t4 -15t-4 -15t-10 -6t-10 6t-4 15zM310 340
q0 9 4 15t10 6t10 -6t4 -15t-4 -15t-10 -6t-10 6t-4 15zM178 340q0 -21 9.5 -35.5t26.5 -14.5t28.5 14.5t11.5 35.5t-11.5 35.5t-28.5 14.5t-26.5 -14.5t-9.5 -35.5zM85 520q0 14 8.5 24t20.5 10q10 0 17 -10t7 -24t-7 -24t-17 -10q-12 0 -20.5 10t-8.5 24z" />
    <glyph glyph-name=".null" horiz-adv-x="0" 
 />
    <glyph glyph-name="nonmarkingreturn" horiz-adv-x="333" 
 />
    <glyph glyph-name="space" unicode=" " 
 />
    <glyph glyph-name="exclam" unicode="!" 
d="M346 233q0 -6 -4.5 -11t-11.5 -5h-108q-7 0 -11.5 5t-4.5 11v451q0 6 4.5 11t11.5 5h108q7 0 11.5 -5t4.5 -11v-451zM355 20q0 -8 -6 -14t-14 -6h-120q-8 0 -14 6t-6 14v120q0 8 6 14t14 6h120q8 0 14 -6t6 -14v-120z" />
    <glyph glyph-name="quotedbl" unicode="&#x22;" 
d="M327 540q-8 0 -14 6t-6 14v120q0 8 6 14t14 6h120q8 0 14 -6t6 -14v-117q0 -20 -6 -38t-16 -31l-64 -84q-5 -7 -12 -13.5t-22 -6.5h-20q-15 0 -22 12t1 26l54 99q3 5 -0.5 9t-8.5 4h-24zM107 540q-8 0 -14 6t-6 14v120q0 8 6 14t14 6h120q8 0 14 -6t6 -14v-117
q0 -20 -6 -38t-16 -31l-64 -84q-5 -7 -12 -13.5t-22 -6.5h-20q-15 0 -22 12t1 26l54 99q3 5 -0.5 9t-8.5 4h-24z" />
    <glyph glyph-name="numbersign" unicode="#" 
d="M342 420q2 10 -8 10h-86q-10 0 -12 -10l-27 -153q-2 -10 8 -10h86q10 0 12 10zM129 420q2 10 -8 10h-50q-8 0 -13.5 6t-3.5 14l11 66q2 8 9 14t15 6h50q10 0 12 10l24 134q2 8 8.5 14t14.5 6h67q8 0 13.5 -6t3.5 -14l-24 -134q-2 -10 8 -10h86q10 0 12 10l24 134
q2 8 8.5 14t14.5 6h67q8 0 13.5 -6t3.5 -14l-24 -134q-2 -10 8 -10h50q8 0 13 -6t3 -14l-11 -66q-2 -8 -8.5 -14t-14.5 -6h-50q-10 0 -12 -10l-27 -153q-2 -10 8 -10h50q8 0 13 -6t3 -14l-11 -69q-2 -8 -8.5 -14t-14.5 -6h-50q-10 0 -12 -10l-22 -118q-2 -8 -8.5 -14
t-14.5 -6h-67q-8 0 -13.5 6t-3.5 14l22 118q2 10 -8 10h-86q-10 0 -12 -10l-22 -118q-2 -8 -8.5 -14t-14.5 -6h-67q-8 0 -13.5 6t-3.5 14l22 118q2 10 -8 10h-50q-8 0 -13.5 6t-3.5 14l11 69q2 8 9 14t15 6h50q10 0 12 10z" />
    <glyph glyph-name="dollar" unicode="$" 
d="M194 699q7 2 11.5 5t4.5 10v36q0 8 6 14t14 6h85q8 0 14 -6t6 -14v-34q0 -11 15 -16q34 -11 62 -30t48 -45.5t31 -58t11 -66.5v-15q0 -8 -6 -14t-14 -6h-101q-8 0 -14 6t-6 14v15q0 30 -23 52.5t-66 22.5q-42 0 -64.5 -22.5t-22.5 -52.5q0 -29 25 -44t64 -23
q52 -11 96.5 -27.5t76.5 -43t50.5 -64.5t18.5 -90q0 -81 -46 -135t-120 -74q-8 -2 -11.5 -5t-3.5 -10v-34q0 -8 -6 -14t-14 -6h-85q-8 0 -14 6t-6 14v35q0 7 -4.5 10t-11.5 5q-36 11 -65.5 31t-50.5 47t-32.5 60t-11.5 70v30q0 8 6 14t14 6h101q8 0 14 -6t6 -14v-30
q0 -35 25 -58.5t72 -23.5q48 0 73.5 23.5t25.5 58.5q0 32 -23.5 49.5t-80.5 30.5q-47 10 -88 26.5t-71 41.5t-47.5 60.5t-17.5 83.5q0 35 11 66.5t30.5 57.5t47.5 45t62 30z" />
    <glyph glyph-name="percent" unicode="%" 
d="M152 15q-8 -15 -21 -15h-47q-10 0 -15.5 8.5t-0.5 19.5l324 657q7 15 22 15h48q10 0 15.5 -8.5t0.5 -19.5zM127 550q0 -21 6 -40t23 -19t23 19t6 40t-6 40t-23 19t-23 -19t-6 -40zM49 550q0 24 4 49t15.5 45t32.5 33t55 13t55 -13t32.5 -33t15.5 -45t4 -49t-4 -49
t-15.5 -45t-32.5 -33t-55 -13t-55 13t-32.5 33t-15.5 45t-4 49zM361 150q0 -21 6 -40t23 -19t23 19t6 40t-6 40t-23 19t-23 -19t-6 -40zM283 150q0 24 4 49t15.5 45t32.5 33t55 13t55 -13t32.5 -33t15.5 -45t4 -49t-4 -49t-15.5 -45t-32.5 -33t-55 -13t-55 13t-32.5 33
t-15.5 45t-4 49z" />
    <glyph glyph-name="ampersand" unicode="&#x26;" 
d="M254 109q13 0 23.5 3.5t21.5 11.5q1 1 2 2.5t-1 3.5l-118 140q-3 3 -6 0q-27 -25 -27 -64q0 -19 9.5 -36.5t24.5 -31t33.5 -21.5t37.5 -8zM378 237q6 10 6 83q0 8 6 14t14 6h68q8 0 14 -6t6 -14q0 -45 -2.5 -76.5t-6.5 -52.5t-8.5 -33t-8.5 -18t1 -12l77 -91
q8 -10 3.5 -23.5t-21.5 -13.5h-79q-11 0 -15 3.5t-7 6.5l-22 23q-7 7 -11.5 4.5t-7.5 -4.5q-29 -23 -65.5 -33.5t-76.5 -10.5q-46 0 -87.5 16.5t-73 46t-50.5 69t-19 85.5q0 42 21 83t55 67q11 8 1 22q-20 25 -33 60.5t-13 68.5q0 42 16 77t44 61t65 40.5t79 14.5
q38 0 72 -14t60 -39t41.5 -58.5t15.5 -72.5q0 -20 -8.5 -25t-21.5 -5h-74q-28 0 -31 29q-2 23 -17 38.5t-41 15.5q-32 0 -49.5 -16.5t-17.5 -45.5q0 -14 5 -28.5t12.5 -27.5t14.5 -23.5t12 -15.5l149 -177q5 -5 9 2z" />
    <glyph glyph-name="quotesingle" unicode="'" 
d="M217 540q-8 0 -14 6t-6 14v120q0 8 6 14t14 6h120q8 0 14 -6t6 -14v-117q0 -20 -6 -38t-16 -31l-64 -84q-5 -7 -12 -13.5t-22 -6.5h-20q-15 0 -22 12t1 26l54 99q3 5 -0.5 9t-8.5 4h-24z" />
    <glyph glyph-name="parenleft" unicode="(" 
d="M442 38q8 0 14 -6t6 -14v-88q0 -8 -6 -14t-14 -6h-62q-45 0 -83.5 14.5t-68 42t-48.5 66.5t-25 87q-3 20 -4.5 51.5t-2.5 68t-1 76t1 76t2.5 67.5t4.5 51q5 41 22 79t45.5 67t68 46.5t89.5 17.5h62q8 0 14 -6t6 -14v-88q0 -8 -6 -14t-14 -6h-62q-34 0 -60 -17.5
t-35 -64.5q-6 -31 -9 -84t-3 -111t3 -111t9 -84q7 -36 29 -59t66 -23h62z" />
    <glyph glyph-name="parenright" unicode=")" 
d="M169 38q44 0 66 23t29 59q6 31 9 84t3 111t-3 111t-9 84q-9 47 -35 64.5t-60 17.5h-62q-8 0 -14 6t-6 14v88q0 8 6 14t14 6h62q49 0 89 -17.5t68.5 -46.5t45.5 -67t22 -79q2 -20 4 -51t2.5 -67.5t0.5 -76t-0.5 -76t-2.5 -68t-4 -51.5q-6 -48 -25 -87t-48.5 -66.5t-68 -42
t-83.5 -14.5h-62q-8 0 -14 6t-6 14v88q0 8 6 14t14 6h62z" />
    <glyph glyph-name="asterisk" unicode="*" 
d="M326 490l3 -30q2 -13 -7.5 -21.5t-22.5 -8.5h-49q-13 0 -22 8.5t-8 21.5l2 30l-25 -17q-10 -7 -22 -3.5t-19 14.5l-23 42q-7 11 -4 23t15 18l27 13l-28 13q-11 5 -14 17.5t3 23.5l25 42q6 11 18 15t23 -4l24 -17l-2 30q-1 13 8 21.5t22 8.5h49q13 0 22.5 -8.5t7.5 -21.5
l-3 -30l26 17q10 7 22 3.5t19 -14.5l23 -42q7 -11 4 -23t-15 -18l-27 -13l28 -13q11 -5 14 -17.5t-3 -23.5l-25 -42q-6 -11 -18 -15t-23 4z" />
    <glyph glyph-name="plus" unicode="+" 
d="M200 315q10 0 10 10v125q0 8 6 14t14 6h89q8 0 14 -6t6 -14v-125q0 -10 10 -10h126q8 0 14 -6t6 -14v-89q0 -8 -6 -14t-14 -6h-126q-10 0 -10 -10v-126q0 -8 -6 -14t-14 -6h-89q-8 0 -14 6t-6 14v126q0 10 -10 10h-125q-8 0 -14 6t-6 14v89q0 8 6 14t14 6h125z" />
    <glyph glyph-name="comma" unicode="," 
d="M217 0q-8 0 -14 6t-6 14v120q0 8 6 14t14 6h120q8 0 14 -6t6 -14v-117q0 -20 -6.5 -37.5t-15.5 -31.5l-64 -84q-5 -7 -12 -13.5t-22 -6.5h-20q-15 0 -22 12t1 26l54 99q3 5 -0.5 9t-8.5 4h-24z" />
    <glyph glyph-name="hyphen" unicode="-" 
d="M411 337q8 0 14 -6t6 -14v-99q0 -8 -6 -14t-14 -6h-273q-8 0 -14 6t-6 14v99q0 8 6 14t14 6h273z" />
    <glyph glyph-name="period" unicode="." 
d="M355 20q0 -8 -6 -14t-14 -6h-120q-8 0 -14 6t-6 14v120q0 8 6 14t14 6h120q8 0 14 -6t6 -14v-120z" />
    <glyph glyph-name="slash" unicode="/" 
d="M207 3q-5 -15 -21 -15h-92q-10 0 -15.5 8.5t-0.5 19.5l266 679q5 15 19 15h92q10 0 15.5 -8.5t0.5 -19.5z" />
    <glyph glyph-name="zero" unicode="0" 
d="M52 490q5 45 23.5 85t47.5 70.5t67.5 48t84.5 17.5t84.5 -17.5t67.5 -48t47.5 -70.5t23.5 -85q4 -32 5.5 -67.5t1.5 -72.5t-1.5 -73t-5.5 -67q-5 -45 -23.5 -85t-47.5 -70.5t-67.5 -48t-84.5 -17.5t-84.5 17.5t-67.5 48t-47.5 70.5t-23.5 85q-4 31 -6 67t-2 73t2 72.5
t6 67.5zM275 575q-35 0 -57.5 -23.5t-26.5 -57.5q-8 -66 -8 -144t8 -144q4 -34 26.5 -57.5t57.5 -23.5t57.5 23.5t26.5 57.5q8 66 8 144t-8 144q-4 34 -26.5 57.5t-57.5 23.5z" />
    <glyph glyph-name="one" unicode="1" 
d="M229 500q0 10 -7 11.5t-12 -3.5l-121 -113q-9 -9 -21.5 -4t-12.5 20v96q0 12 2.5 22.5t13.5 21.5l116 125q7 8 19 16t31 8h111q8 0 14 -6t6 -14v-535q0 -10 10 -10h111q8 0 14 -6t6 -14v-95q0 -8 -6 -14t-14 -6h-410q-8 0 -14 6t-6 14v95q0 8 6 14t14 6h140q10 0 10 10
v355z" />
    <glyph glyph-name="two" unicode="2" 
d="M355 503q0 30 -19 51.5t-53 21.5q-38 0 -60 -20t-22 -53v-17q0 -8 -6 -14t-14 -6h-95q-8 0 -14 6t-6 14v16q0 44 17 82t46 66.5t67.5 44.5t82.5 16t82.5 -16t67 -44.5t45 -66.5t16.5 -82q0 -42 -17 -80t-45 -68l-188 -199q-5 -5 -4 -12.5t14 -7.5h221q8 0 14 -6t6 -14
v-95q0 -8 -6 -14t-14 -6h-392q-8 0 -14 6t-6 14v118q0 11 3 16.5t6 8.5l259 275q8 9 18 29t10 36z" />
    <glyph glyph-name="three" unicode="3" 
d="M363 208q0 39 -24 61t-63 22h-12q-8 0 -14 6t-6 14v94q0 8 6 14t14 6h12q35 0 56.5 20.5t21.5 55.5q0 34 -21.5 54t-56.5 20q-34 0 -56 -20t-22 -54v-15q0 -8 -6 -14t-14 -6h-96q-8 0 -14 6t-6 14v15q0 44 17 82t46 66.5t68 45t83 16.5t83 -16.5t68 -45t45.5 -66.5
t16.5 -82q0 -38 -15 -72t-38 -59q-10 -10 0 -18q29 -24 46 -63t17 -81q0 -46 -17.5 -86t-48 -69.5t-71 -46.5t-86.5 -17t-86.5 17t-71 46.5t-48 69.5t-17.5 86v10q0 8 6 14t14 6h96q8 0 14 -6t6 -14v-10q0 -39 23.5 -61t63.5 -22q39 0 63 22t24 61z" />
    <glyph glyph-name="four" unicode="4" 
d="M486 251q8 0 14 -6t6 -14v-86q0 -8 -6 -14t-14 -6h-37q-10 0 -10 -10v-95q0 -8 -6 -14t-14 -6h-90q-8 0 -14 6t-6 14v95q0 10 -10 10h-235q-8 0 -14 6t-6 14v104q0 11 5 19.5t11 18.5l231 399q5 8 9 11t12 3h107q8 0 14 -6t6 -14v-419q0 -10 10 -10h37zM183 263
q-7 -12 6 -12h110q10 0 10 10v212q0 5 -4.5 6t-6.5 -3z" />
    <glyph glyph-name="five" unicode="5" 
d="M210 564q-10 0 -10 -10v-93q0 -10 6 -12t13 3q10 7 26.5 12t35.5 5q49 0 88.5 -17.5t68 -49t44 -75t15.5 -95.5q0 -45 -14.5 -89t-42.5 -78t-69.5 -55t-96.5 -21q-44 0 -84 12t-70.5 37t-48.5 62t-18 88q0 10 6 15t14 5h94q8 0 14 -6t6 -14q0 -17 7.5 -29t20 -19.5
t28 -11t31.5 -3.5q24 0 41 9t27.5 23.5t15 34t4.5 40.5t-5 41t-15.5 35.5t-27 25t-40.5 9.5q-23 0 -39.5 -9t-26.5 -23q-8 -11 -24 -11h-97q-8 0 -14 6t-6 14v360q0 8 6 14t14 6h361q8 0 14 -6t6 -14v-96q0 -8 -6 -14t-14 -6h-238z" />
    <glyph glyph-name="six" unicode="6" 
d="M280 335q-39 0 -62.5 -25.5t-26.5 -64.5q-1 -20 0 -39q3 -39 26.5 -62.5t62.5 -23.5t62.5 23.5t26.5 62.5q1 19 0 39q-3 39 -26.5 64.5t-62.5 25.5zM492 516q0 -8 -6 -14t-14 -6h-85q-23 0 -28 20q-6 25 -26 44.5t-58 19.5q-47 0 -69 -32t-22 -85q0 -11 7.5 -14.5
t15.5 1.5q10 5 30 10.5t43 5.5q46 0 86.5 -17.5t71 -48t48 -71t17.5 -86.5v-35q0 -46 -17.5 -86t-48 -69.5t-71 -46.5t-86.5 -17t-84.5 17t-67.5 46.5t-47.5 69t-23.5 84.5q-4 31 -6 68.5t-2 75.5t2 75t6 69q5 45 23 84.5t46.5 69t66.5 46.5t82 17q41 0 80 -14t69.5 -39.5
t49 -61.5t18.5 -80z" />
    <glyph glyph-name="seven" unicode="7" 
d="M345 555q4 10 -7 10h-255q-8 0 -14 6t-6 14v95q0 8 6 14t14 6h384q8 0 14 -6t6 -14v-120q0 -9 -5 -20l-228 -525q-7 -15 -19 -15h-107q-14 0 -17.5 8.5t-0.5 15.5z" />
    <glyph glyph-name="eight" unicode="8" 
d="M275 122q44 0 70 24t26 62t-26 64t-70 26t-70 -26t-26 -64t26 -62t70 -24zM275 420q38 0 62 23.5t24 57.5q0 33 -24 55t-62 22q-37 0 -61.5 -22t-24.5 -55q0 -34 24.5 -57.5t61.5 -23.5zM275 711q46 0 86 -16.5t69 -45t46 -66.5t17 -82q0 -76 -44 -129q-5 -6 -5.5 -11
t5.5 -11q27 -27 40.5 -63.5t13.5 -78.5q0 -46 -17.5 -86t-48.5 -69.5t-72.5 -46.5t-89.5 -17t-89.5 17t-72.5 46.5t-48.5 69.5t-17.5 86q0 42 14 77.5t39 64.5q9 10 -1 22q-43 55 -43 129q0 44 17 82t46.5 66.5t69.5 45t86 16.5z" />
    <glyph glyph-name="nine" unicode="9" 
d="M271 366q35 0 56.5 24t25.5 59q2 16 2 27t-2 28q-3 35 -25 57t-57 22t-57 -22t-25 -57q-2 -17 -2 -28t2 -27q4 -35 25.5 -59t56.5 -24zM49 186q0 8 6 14t14 6h81q23 0 28 -20q6 -26 26.5 -46t61.5 -20q23 0 42.5 6t33.5 20t21.5 37t7.5 57q0 11 -8 13.5t-16 -0.5
q-11 -4 -35 -9.5t-47 -5.5q-44 0 -81.5 16.5t-66 45.5t-45.5 68t-20 84q-1 14 -1 23.5t1 25.5q2 44 19 82t45.5 66.5t67 45t82.5 16.5q47 0 86.5 -17t68.5 -46.5t47.5 -69t23.5 -84.5q4 -32 5.5 -69t1.5 -75t-1.5 -75.5t-5.5 -68.5q-5 -45 -23.5 -84.5t-47.5 -69
t-67.5 -46.5t-84.5 -17q-47 0 -87 15t-69.5 41.5t-46.5 62.5t-17 78z" />
    <glyph glyph-name="colon" unicode=":" 
d="M356 20q0 -8 -6 -14t-14 -6h-120q-8 0 -14 6t-6 14v120q0 8 6 14t14 6h120q8 0 14 -6t6 -14v-120zM356 360q0 -8 -6 -14t-14 -6h-120q-8 0 -14 6t-6 14v120q0 8 6 14t14 6h120q8 0 14 -6t6 -14v-120z" />
    <glyph glyph-name="semicolon" unicode=";" 
d="M357 360q0 -8 -6 -14t-14 -6h-120q-8 0 -14 6t-6 14v120q0 8 6 14t14 6h120q8 0 14 -6t6 -14v-120zM217 0q-8 0 -14 6t-6 14v120q0 8 6 14t14 6h120q8 0 14 -6t6 -14v-117q0 -20 -6 -38t-16 -31l-64 -84q-5 -7 -12 -13.5t-22 -6.5h-20q-15 0 -22 12t1 26l54 99
q3 5 -0.5 9t-8.5 4h-24z" />
    <glyph glyph-name="less" unicode="&#x3c;" 
d="M460 145q15 -8 15 -21v-105q0 -12 -8 -17.5t-15 -1.5l-362 204q-7 4 -11 11t-4 21v29q0 14 4 21t11 11l362 203q7 4 15 -1.5t8 -17.5v-105q0 -12 -15 -21l-202 -101q-8 -4 0 -8z" />
    <glyph glyph-name="equal" unicode="=" 
d="M75 286q-8 0 -14 6t-6 14v87q0 8 6 14t14 6h400q8 0 14 -6t6 -14v-87q0 -8 -6 -14t-14 -6h-400zM75 87q-8 0 -14 6t-6 14v87q0 8 6 14t14 6h400q8 0 14 -6t6 -14v-87q0 -8 -6 -14t-14 -6h-400z" />
    <glyph glyph-name="greater" unicode="&#x3e;" 
d="M292 246q8 4 0 8l-202 101q-15 7 -15 21v105q0 12 8 17.5t15 1.5l362 -203q7 -4 11 -11t4 -21v-29q0 -14 -4 -21t-11 -11l-362 -204q-7 -4 -15 1.5t-8 17.5v105q0 13 15 21z" />
    <glyph glyph-name="question" unicode="?" 
d="M343 506q0 32 -20.5 51t-50.5 19q-34 0 -53 -22t-19 -51v-17q0 -8 -6 -14t-14 -6h-100q-8 0 -14 6t-6 14v15q0 44 17 83t45.5 68t67 46t82.5 17t82.5 -15t67 -42t45 -64t16.5 -81q0 -31 -9 -57.5t-23 -48.5t-31.5 -39t-33.5 -29q-14 -11 -23 -20t-14 -19t-7 -22.5
t-2 -30.5v-10q0 -8 -6 -14t-14 -6h-100q-8 0 -14 6t-6 14v10q0 12 -0.5 26.5t2 31t8.5 33.5t18 33q17 21 39 35.5t38 29.5t27 34t11 36zM350 20q0 -8 -6 -14t-14 -6h-120q-8 0 -14 6t-6 14v120q0 8 6 14t14 6h120q8 0 14 -6t6 -14v-120z" />
    <glyph glyph-name="at" unicode="@" 
d="M279 40q29 0 55.5 5t50.5 16q10 5 17 0t7 -15v-46q0 -12 -7.5 -17.5t-16.5 -10.5q-16 -9 -46.5 -15.5t-59.5 -6.5q-51 0 -98 15t-83 46t-57 77.5t-21 109.5v144q0 53 20.5 98.5t56 78.5t83 52t101.5 19q47 0 91.5 -13.5t79.5 -41.5t56 -71t21 -102v-142q0 -53 -23 -86.5
t-71 -33.5q-14 0 -23.5 3t-17 7t-13.5 7t-12 3q-10 0 -19 -4t-19 -8q-25 -10 -51 -10q-36 0 -60.5 12.5t-39.5 35t-21 53t-6 65.5q0 31 3.5 63.5t16.5 58.5t38 43t68 17q28 0 51 -9t39.5 -24t25.5 -36t9 -45v-110q0 -22 19 -22q21 0 21 22v140q0 36 -14.5 62t-37.5 43
t-52.5 25t-60.5 8q-77 0 -122.5 -42.5t-45.5 -115.5v-144q0 -44 16.5 -74.5t41.5 -49t54.5 -26.5t55.5 -8zM321 326q0 14 -10.5 23t-31.5 9q-17 0 -26 -6.5t-13.5 -18.5t-5 -29.5t-0.5 -38.5q0 -12 0.5 -26t4.5 -25.5t13 -19.5t27 -8q21 0 31.5 9t10.5 23v108z" />
    <glyph glyph-name="A" unicode="A" 
d="M154 15q-3 -15 -19 -15h-105q-12 0 -17 6.5t-3 13.5l179 665q3 15 19 15h134q16 0 19 -15l178 -665q2 -7 -3 -13.5t-17 -6.5h-105q-14 0 -19 15l-31 103q-2 6 -5 10.5t-10 4.5h-152q-12 0 -15 -15zM220 284q-3 -11 8 -11h92q11 0 8 11l-48 240q-1 4 -5 4h-2q-4 0 -5 -4z
" />
    <glyph glyph-name="B" unicode="B" 
d="M446 370q-10 -10 0 -18q12 -11 23 -26t19 -33t12.5 -38t4.5 -39q0 -49 -14.5 -89t-41.5 -68t-65 -43.5t-84 -15.5h-236q-8 0 -14 6t-6 14v660q0 8 6 14t14 6h236q42 0 78 -16t62.5 -43.5t41.5 -65t15 -79.5q0 -33 -14.5 -68.5t-36.5 -57.5zM191 560q-10 0 -10 -10v-109
q0 -10 10 -10h104q26 0 46 19.5t20 45.5t-20 45t-46 19h-104zM295 140q32 0 51 23t19 53q0 29 -19 52t-51 23h-104q-10 0 -10 -10v-131q0 -10 10 -10h104z" />
    <glyph glyph-name="C" unicode="C" 
d="M279 130q43 0 69 24.5t29 63.5q1 8 6.5 14t13.5 6h100q8 0 14 -6t6 -14q0 -50 -18 -92t-49.5 -72.5t-75 -47.5t-95.5 -17t-93.5 17.5t-72 48t-49 70.5t-23.5 85q-4 31 -6 67t-2 73t2 72.5t6 67.5q5 45 23.5 85t49 70.5t72 48t93.5 17.5t95.5 -17t75 -47.5t49.5 -72.5
t18 -92q0 -8 -6 -14t-14 -6h-100q-8 0 -13.5 6t-6.5 14q-3 39 -29 63.5t-69 24.5q-46 0 -69.5 -23.5t-27.5 -56.5q-4 -32 -6 -67.5t-2 -72.5t2 -73t6 -67q4 -33 27.5 -56.5t69.5 -23.5z" />
    <glyph glyph-name="D" unicode="D" 
d="M64 0q-8 0 -14 6t-6 14v660q0 8 6 14t14 6h210q46 0 84.5 -17.5t67.5 -48t47.5 -70.5t23.5 -85q8 -63 8 -129t-8 -129q-5 -45 -23.5 -85t-47.5 -70.5t-67.5 -48t-84.5 -17.5h-210zM274 140q35 0 56.5 24t25.5 57q8 63 8 129t-8 129q-4 33 -25.5 57t-56.5 24h-80
q-10 0 -10 -10v-400q0 -10 10 -10h80z" />
    <glyph glyph-name="E" unicode="E" 
d="M211 430q0 -10 10 -10h225q8 0 14 -6t6 -14v-100q0 -8 -6 -14t-14 -6h-225q-10 0 -10 -10v-120q0 -10 10 -10h237q8 0 14 -6t6 -14v-100q0 -8 -6 -14t-14 -6h-367q-8 0 -14 6t-6 14v660q0 8 6 14t14 6h363q8 0 14 -6t6 -14v-100q0 -8 -6 -14t-14 -6h-233q-10 0 -10 -10
v-120z" />
    <glyph glyph-name="F" unicode="F" 
d="M240 20q0 -8 -6 -14t-14 -6h-100q-8 0 -14 6t-6 14v660q0 8 6 14t14 6h350q8 0 14 -6t6 -14v-100q0 -8 -6 -14t-14 -6h-220q-10 0 -10 -10v-120q0 -10 10 -10h210q8 0 14 -6t6 -14v-100q0 -8 -6 -14t-14 -6h-210q-10 0 -10 -10v-250z" />
    <glyph glyph-name="G" unicode="G" 
d="M377 482q-3 39 -29 63.5t-69 24.5q-46 0 -69.5 -23.5t-27.5 -56.5q-4 -32 -6 -67.5t-2 -72.5t2 -73t6 -67q4 -33 27.5 -56.5t69.5 -23.5q45 0 73 22t28 56v43q0 10 -10 10h-68q-8 0 -14 6t-6 14v95q0 8 6 14t14 6h195q8 0 14 -6t6 -14v-168q0 -45 -18 -85t-49.5 -69.5
t-75.5 -47t-95 -17.5q-52 0 -93.5 17.5t-72 48t-49 70.5t-23.5 85q-4 31 -6 67t-2 73t2 72.5t6 67.5q5 45 23.5 85t49 70.5t72 48t93.5 17.5t95.5 -17t75 -47.5t49.5 -72.5t18 -92q0 -8 -6 -14t-14 -6h-100q-8 0 -13.5 6t-6.5 14z" />
    <glyph glyph-name="H" unicode="H" 
d="M189 430q0 -10 10 -10h152q10 0 10 10v250q0 8 6 14t14 6h100q8 0 14 -6t6 -14v-660q0 -8 -6 -14t-14 -6h-100q-8 0 -14 6t-6 14v250q0 10 -10 10h-152q-10 0 -10 -10v-250q0 -8 -8.5 -14t-16.5 -6h-95q-8 0 -14 6t-6 14v660q0 8 6 14t14 6h100q8 0 14 -6t6 -14v-250z
" />
    <glyph glyph-name="I" unicode="I" 
d="M205 555q0 10 -10 10h-100q-8 0 -14 6t-6 14v95q0 8 6 14t14 6h360q8 0 14 -6t6 -14v-95q0 -8 -6 -14t-14 -6h-100q-10 0 -10 -10v-410q0 -10 10 -10h110q8 0 14 -6t6 -14v-95q0 -8 -6 -14t-14 -6h-380q-8 0 -14 6t-6 14v95q0 8 6 14t14 6h110q10 0 10 10v410z" />
    <glyph glyph-name="J" unicode="J" 
d="M164 211q0 -34 24.5 -57.5t66.5 -23.5q41 0 65.5 24.5t24.5 66.5v459q0 8 6 14t14 6h101q8 0 14 -6t6 -14v-469q0 -46 -16.5 -86.5t-46.5 -70.5t-73 -47.5t-95 -17.5q-50 0 -92 17.5t-73.5 47.5t-49 70.5t-17.5 86.5v28q0 8 6 14t14 6h101q8 0 14 -6t6 -14v-28z" />
    <glyph glyph-name="K" unicode="K" 
d="M371 690q2 3 6.5 6.5t15.5 3.5h101q14 0 19.5 -12.5t-2.5 -23.5l-187 -276q-7 -10 -6.5 -17t6.5 -16l205 -317q7 -11 1.5 -24.5t-22.5 -13.5h-108q-11 0 -16 4t-7 8l-171 273q-2 3 -6 2.5t-4 -5.5v-262q0 -8 -6 -14t-14 -6h-99q-8 0 -14 6t-6 14v660q0 8 6 14t14 6h99
q8 0 14 -6t6 -14v-230q0 -5 4 -5.5t6 2.5z" />
    <glyph glyph-name="L" unicode="L" 
d="M235 150q0 -10 10 -10h250q8 0 14 -6t6 -14v-100q0 -8 -6 -14t-14 -6h-380q-8 0 -14 6t-6 14v660q0 8 6 14t14 6h100q8 0 14 -6t6 -14v-530z" />
    <glyph glyph-name="M" unicode="M" 
d="M266 488q2 -8 9 -8t9 8l56 195q4 17 21 17h138q8 0 14 -6t6 -14v-660q0 -8 -6 -14t-14 -6h-98q-8 0 -14 6t-6 14v396q0 4 -3 4.5t-5 -3.5l-47 -150q-6 -17 -21 -17h-59q-15 0 -21 17l-48 150q-2 4 -5 3.5t-3 -4.5v-396q0 -8 -6 -14t-14 -6h-98q-8 0 -14 6t-6 14v660
q0 8 6 14t14 6h138q17 0 21 -17z" />
    <glyph glyph-name="N" unicode="N" 
d="M500 20q0 -8 -6 -14t-14 -6h-118q-13 0 -19 5.5t-8 11.5l-136 351q-2 5 -5.5 4t-3.5 -6v-346q0 -8 -6 -14t-14 -6h-100q-8 0 -14 6t-6 14v660q0 8 6 14t14 6h119q11 0 17 -5.5t8 -12.5l137 -380q2 -5 5.5 -4t3.5 6v376q0 8 6 14t14 6h100q8 0 14 -6t6 -14v-660z" />
    <glyph glyph-name="O" unicode="O" 
d="M275 570q-46 0 -69.5 -23.5t-27.5 -56.5q-4 -32 -6 -67.5t-2 -72.5t2 -73t6 -67q4 -33 27.5 -56.5t69.5 -23.5t69.5 23.5t27.5 56.5q4 31 5.5 67t1.5 73t-1.5 72.5t-5.5 67.5q-4 33 -27.5 56.5t-69.5 23.5zM275 711q52 0 93.5 -17.5t72 -48t49 -70.5t23.5 -85
q4 -32 5.5 -67.5t1.5 -72.5t-1.5 -73t-5.5 -67q-5 -45 -23.5 -85t-49 -70.5t-72 -48t-93.5 -17.5t-93.5 17.5t-72 48t-49 70.5t-23.5 85q-4 31 -6 67t-2 73t2 72.5t6 67.5q5 45 23.5 85t49 70.5t72 48t93.5 17.5z" />
    <glyph glyph-name="P" unicode="P" 
d="M210 20q0 -8 -6 -14t-14 -6h-100q-8 0 -14 6t-6 14v660q0 8 6 14t14 6h220q43 0 81.5 -16.5t67 -45t45 -67t16.5 -81.5q0 -44 -16.5 -82t-45 -66.5t-67 -45t-81.5 -16.5h-90q-10 0 -10 -10v-250zM220 560q-10 0 -10 -10v-120q0 -10 10 -10h90q29 0 49.5 20.5t20.5 49.5
t-20.5 49.5t-49.5 20.5h-90z" />
    <glyph glyph-name="Q" unicode="Q" 
d="M275 570q-46 0 -69.5 -23.5t-27.5 -56.5q-4 -32 -6 -67.5t-2 -72.5t2 -73t6 -67q4 -33 27.5 -56.5t69.5 -23.5t69.5 23.5t27.5 56.5q4 31 5.5 67t1.5 73t-1.5 72.5t-5.5 67.5q-4 33 -27.5 56.5t-69.5 23.5zM445 57q-5 -5 -6.5 -9.5t2.5 -12.5l45 -89q5 -11 1.5 -23.5
t-25.5 -12.5h-92q-13 0 -18.5 6.5t-11.5 17.5l-23 45q-3 5 -6.5 7.5t-11.5 2.5h-24q-52 0 -93.5 17.5t-72 48t-49 70.5t-23.5 85q-4 31 -6 67t-2 73t2 72.5t6 67.5q5 45 23.5 85t49 70.5t72 48t93.5 17.5t93.5 -17.5t72 -48t49 -70.5t23.5 -85q4 -32 5.5 -67.5t1.5 -72.5
t-1.5 -73t-5.5 -67q-5 -44 -23.5 -85.5t-44.5 -67.5z" />
    <glyph glyph-name="R" unicode="R" 
d="M208 560q-10 0 -10 -10v-120q0 -10 10 -10h90q29 0 49.5 20.5t20.5 49.5t-20.5 49.5t-49.5 20.5h-90zM208 280q-10 0 -10 -10v-250q0 -8 -6 -14t-14 -6h-100q-8 0 -14 6t-6 14v660q0 8 6 14t14 6h220q43 0 81.5 -16.5t67 -45t45 -67t16.5 -81.5q0 -58 -25 -99.5
t-79 -77.5q-11 -8 -11 -15t5 -18l107 -250q5 -11 0.5 -20.5t-19.5 -9.5h-103q-12 0 -18.5 5.5t-10.5 14.5l-102 247q-2 4 -6 8.5t-12 4.5h-26z" />
    <glyph glyph-name="S" unicode="S" 
d="M371 208q0 32 -23.5 49.5t-80.5 30.5q-47 10 -88 26.5t-71 41.5t-47.5 60.5t-17.5 83.5q0 44 17 82.5t48 67t72.5 45t91.5 16.5t92.5 -16.5t73 -45t47.5 -67t17 -82.5v-15q0 -8 -6 -14t-14 -6h-101q-8 0 -14 6t-6 14v15q0 30 -23 52.5t-66 22.5q-42 0 -64.5 -20
t-22.5 -50q0 -29 25 -46.5t64 -25.5q52 -11 96.5 -27.5t76.5 -43t50.5 -64.5t18.5 -90q0 -49 -18 -89t-50.5 -69t-77.5 -45t-98 -16q-52 0 -95.5 17t-75 46.5t-49.5 69.5t-18 86v30q0 8 6 14t14 6h101q8 0 14 -6t6 -14v-30q0 -35 25 -58.5t72 -23.5q45 0 72 23.5t27 58.5z
" />
    <glyph glyph-name="T" unicode="T" 
d="M59 560q-8 0 -14 6t-6 14v100q0 8 6 14t14 6h430q8 0 14 -6t6 -14v-100q0 -8 -6 -14t-14 -6h-135q-10 0 -10 -10v-530q0 -8 -6 -14t-14 -6h-100q-8 0 -14 6t-6 14v530q0 10 -10 10h-135z" />
    <glyph glyph-name="U" unicode="U" 
d="M178 210q0 -33 25 -56.5t70 -23.5q46 0 71.5 23.5t25.5 56.5v470q0 8 6 14t14 6h101q8 0 14 -6t6 -14v-470q0 -45 -18 -85.5t-49.5 -70.5t-75 -47.5t-95.5 -17.5q-51 0 -94.5 17.5t-75 47.5t-49 70.5t-17.5 85.5v470q0 8 6 14t14 6h101q8 0 14 -6t6 -14v-470z" />
    <glyph glyph-name="V" unicode="V" 
d="M394 685q3 15 19 15h110q12 0 16.5 -8t2.5 -16l-173 -661q-5 -15 -19 -15h-151q-15 0 -19 15l-173 661q-2 8 2.5 16t16.5 8h110q16 0 19 -15l110 -469q2 -7 7 -7h6q5 0 7 7z" />
    <glyph glyph-name="W" unicode="W" 
d="M361 285q2 -7 7.5 -7t6.5 7l38 400q1 8 6.5 11.5t12.5 3.5h93q12 0 16.5 -6t3.5 -14l-71 -665q-1 -8 -6.5 -11.5t-12.5 -3.5h-120q-16 0 -19 15l-35 181q-1 5 -6 5t-6 -5l-35 -181q-3 -15 -19 -15h-120q-7 0 -12.5 3.5t-6.5 11.5l-71 665q-1 8 3.5 14t16.5 6h93
q7 0 12.5 -3.5t6.5 -11.5l39 -400q1 -7 6.5 -7t7.5 7l36 200q3 15 19 15h60q16 0 19 -15z" />
    <glyph glyph-name="X" unicode="X" 
d="M281 252q-2 4 -5 4h-2q-3 0 -5 -4l-93 -237q-5 -15 -21 -15h-118q-10 0 -15.5 8.5t-0.5 19.5l147 333q3 7 3 10.5t-3 11.5l-130 289q-5 11 0.5 19.5t15.5 8.5h113q12 0 19 -15l83 -207q2 -4 5 -4h2q3 0 5 4l83 207q7 15 19 15h113q10 0 15.5 -8.5t0.5 -19.5l-130 -290
q-3 -8 -3 -11.5t3 -10.5l147 -332q5 -11 -0.5 -19.5t-15.5 -8.5h-118q-16 0 -21 15z" />
    <glyph glyph-name="Y" unicode="Y" 
d="M377 685q5 15 19 15h110q10 0 15.5 -8.5t0.5 -19.5l-177 -446v-206q0 -8 -6 -14t-14 -6h-100q-8 0 -14 6t-6 14v206l-177 446q-5 11 0.5 19.5t15.5 8.5h110q14 0 19 -15l96 -277q1 -4 5 -4h2q4 0 5 4z" />
    <glyph glyph-name="Z" unicode="Z" 
d="M212 147q-2 -4 -0.5 -7t6.5 -3h264q8 0 14 -6t6 -14v-97q0 -8 -6 -14t-14 -6h-414q-8 0 -14 6t-6 14v119q0 8 5 16l276 398q2 4 0.5 7t-6.5 3h-240q-8 0 -14 6t-6 14v97q0 8 6 14t14 6h389q8 0 14 -6t6 -14v-116q0 -8 -5 -16z" />
    <glyph glyph-name="bracketleft" unicode="[" 
d="M316 42q0 -10 10 -10h130q8 0 14 -6t6 -14v-82q0 -8 -6 -14t-14 -6h-242q-8 0 -14 6t-6 14v770q0 8 6 14t14 6h242q8 0 14 -6t6 -14v-82q0 -8 -6 -14t-14 -6h-130q-10 0 -10 -10v-546z" />
    <glyph glyph-name="backslash" unicode="\" 
d="M79 682q-5 11 0.5 19.5t15.5 8.5h92q14 0 19 -15l266 -679q5 -11 -0.5 -19.5t-15.5 -8.5h-92q-16 0 -21 15z" />
    <glyph glyph-name="bracketright" unicode="]" 
d="M234 588q0 10 -10 10h-130q-8 0 -14 6t-6 14v82q0 8 6 14t14 6h242q8 0 14 -6t6 -14v-770q0 -8 -6 -14t-14 -6h-242q-8 0 -14 6t-6 14v82q0 8 6 14t14 6h130q10 0 10 10v546z" />
    <glyph glyph-name="asciicircum" unicode="^" 
d="M231 586q-4 -5 -12 -10.5t-19 -5.5h-95q-13 0 -14.5 10t3.5 15l119 123q5 5 10.5 8.5t19.5 3.5h62q13 0 18.5 -3.5t10.5 -8.5l119 -123q5 -5 3 -15t-16 -10h-94q-11 0 -19 5.5t-12 10.5l-35 44q-7 10 -14 0z" />
    <glyph glyph-name="underscore" unicode="_" 
d="M554 0q8 0 14 -6t6 -14v-59q0 -8 -6 -14t-14 -6h-557q-8 0 -14 6t-6 14v59q0 8 6 14t14 6h557z" />
    <glyph glyph-name="grave" unicode="`" 
d="M281 730q11 0 16.5 -5.5t9.5 -10.5l82 -114q9 -12 3 -21t-16 -9h-69q-14 0 -19.5 3.5t-10.5 8.5l-115 121q-8 9 -5 18t17 9h107z" />
    <glyph glyph-name="a" unicode="a" 
d="M242 204q-16 0 -26 -5.5t-15.5 -13.5t-7.5 -16.5t-2 -14.5q0 -28 19.5 -40.5t46.5 -12.5q43 0 72 15t29 54v24q0 10 -10 10h-106zM276 397q-8 0 -19.5 -1.5t-22.5 -5.5t-19 -11.5t-8 -19.5q0 -13 -6.5 -16t-20.5 -3h-72q-8 0 -14 6t-6 14q0 30 13.5 57t38 48t60.5 33.5
t81 12.5q91 0 145.5 -46.5t54.5 -134.5v-310q0 -8 -6 -14t-14 -6h-50q-8 0 -14 7q-5 6 -7.5 13t-12.5 7q-7 0 -16 -6t-23 -13t-33.5 -13t-47.5 -6q-88 0 -138 43t-50 122q0 26 10.5 53.5t32 50.5t54 37.5t75.5 14.5h102q10 0 10 10v16q0 31 -22 46t-55 15z" />
    <glyph glyph-name="b" unicode="b" 
d="M283 115q36 0 54.5 17.5t20.5 42.5q1 15 1.5 34.5t0.5 40.5t-0.5 40.5t-1.5 34.5q-2 25 -20.5 42.5t-54.5 17.5q-37 0 -55.5 -15.5t-20.5 -44.5q-1 -15 -1.5 -34.5t-0.5 -40.5t0.5 -40.5t1.5 -34.5q2 -26 20.5 -43t55.5 -17zM298 -11q-28 0 -44.5 5.5t-28 11.5
t-19.5 11.5t-19 5.5q-8 0 -14 -5.5t-11 -10.5q-7 -7 -14 -7h-50q-8 0 -14 6t-6 14v670q0 8 6 14t14 6h90q8 0 14 -6t6 -14v-170q0 -17 9.5 -21.5t20.5 0.5t24 8.5t36 3.5q39 0 72.5 -14.5t58.5 -39.5t40.5 -59t18.5 -73q1 -15 1.5 -34.5t0.5 -40.5t-0.5 -40.5t-1.5 -34.5
q-3 -39 -18.5 -73t-40.5 -59t-58.5 -39.5t-72.5 -14.5z" />
    <glyph glyph-name="c" unicode="c" 
d="M279 119q33 0 53 14.5t26 55.5q3 16 19 16h89q8 0 12.5 -6t4.5 -14q0 -46 -16.5 -82t-44.5 -61.5t-65 -39t-78 -13.5q-46 0 -82.5 14.5t-63 39.5t-42 59t-20.5 73q-2 15 -3 34.5t-1 40.5t1 40.5t3 34.5q5 39 20.5 73t42 59t63 39.5t82.5 14.5q41 0 78 -13t65 -38.5
t44.5 -62t16.5 -82.5q0 -8 -4.5 -14t-12.5 -6h-89q-7 0 -12.5 4t-6.5 12q-2 37 -23.5 53.5t-56.5 16.5q-38 0 -55.5 -13.5t-21.5 -42.5q-2 -15 -3 -34.5t-1 -40.5t1 -40.5t3 -34.5q3 -26 21.5 -41t56.5 -15z" />
    <glyph glyph-name="d" unicode="d" 
d="M266 115q37 0 55.5 17t20.5 43q1 15 1.5 34.5t0.5 40.5t-0.5 40.5t-1.5 34.5q-2 29 -20.5 44.5t-55.5 15.5q-36 0 -54.5 -17.5t-20.5 -42.5q-1 -15 -1.5 -34.5t-0.5 -40.5t0.5 -40.5t1.5 -34.5q2 -25 20.5 -42.5t54.5 -17.5zM251 -11q-39 0 -72.5 14.5t-58.5 39.5
t-40.5 59t-18.5 73q-1 15 -1.5 34.5t-0.5 40.5t0.5 40.5t1.5 34.5q3 39 18.5 73t40.5 59t58.5 39.5t72.5 14.5q23 0 36 -3.5t24 -8.5t20.5 -0.5t9.5 21.5v170q0 8 6 14t14 6h90q8 0 14 -6t6 -14v-670q0 -8 -6 -14t-14 -6h-50q-7 0 -14 7q-5 5 -11 10.5t-14 5.5
q-11 0 -19 -5.5t-19.5 -11.5t-28 -11.5t-44.5 -5.5z" />
    <glyph glyph-name="e" unicode="e" 
d="M190 195q0 -42 26 -63.5t62 -21.5q29 0 49 9t30 33q7 17 23 17h83q8 0 14 -5t3 -17q-17 -70 -67.5 -114t-134.5 -44q-46 0 -82 14.5t-62.5 39.5t-42 59t-20.5 73q-2 15 -3 34.5t-1 40.5t1 40.5t3 34.5q5 39 20.5 73t42 59t62.5 39.5t82 14.5q45 0 82.5 -13t64.5 -38.5
t42 -62t15 -84.5v-83q0 -8 -6 -14t-14 -6h-257q-15 0 -15 -15zM191 330q0 -9 10 -9h152q10 0 10 9q0 16 -7 28t-19 19.5t-27.5 11.5t-31.5 4q-43 0 -65 -17t-22 -46z" />
    <glyph glyph-name="f" unicode="f" 
d="M70 377q-8 0 -14 6t-6 14v80q0 8 6 14t14 6h110q10 0 10 10v20q0 39 15 72.5t41 58t60.5 38.5t73.5 14h90q8 0 14 -6t6 -14v-90q0 -8 -6 -14t-14 -6h-90q-25 0 -42.5 -15t-17.5 -40v-18q0 -10 10 -10h150q8 0 14 -6t6 -14v-80q0 -8 -6 -14t-14 -6h-150q-10 0 -10 -10
v-347q0 -8 -6 -14t-14 -6h-90q-8 0 -14 6t-6 14v347q0 10 -10 10h-110z" />
    <glyph glyph-name="g" unicode="g" 
d="M461 500q8 0 14 -6t6 -14v-510q0 -38 -15 -71.5t-41 -59t-62.5 -40t-78.5 -14.5q-40 0 -75.5 12t-62.5 34t-43 52.5t-16 66.5q0 8 6 14t14 6h75q18 0 21 -6t5 -17q4 -18 22 -30.5t48 -12.5q28 0 50.5 16.5t22.5 49.5v10q0 32 -30 21q-11 -4 -24 -8t-36 -4
q-39 0 -72.5 14.5t-58.5 39.5t-40.5 59t-18.5 73q-1 15 -1.5 34.5t-0.5 40.5t0.5 40.5t1.5 34.5q3 39 18.5 73t40.5 59t58.5 39.5t72.5 14.5q28 0 44.5 -5.5t28 -11.5t19.5 -11.5t19 -5.5q8 0 14 5.5t11 10.5q7 7 14 7h50zM276 385q-36 0 -54.5 -17.5t-20.5 -42.5
q-1 -15 -1.5 -34.5t-0.5 -40.5t0.5 -40.5t1.5 -34.5q2 -25 20.5 -42.5t54.5 -17.5q37 0 55.5 17t20.5 43q1 15 1.5 34.5t0.5 40.5t-0.5 40.5t-1.5 34.5q-2 29 -20.5 44.5t-55.5 15.5z" />
    <glyph glyph-name="h" unicode="h" 
d="M95 0q-8 0 -14 6t-6 14v670q0 8 6 14t14 6h90q8 0 14 -6t6 -14v-170q0 -13 8 -19.5t22 -1.5q11 4 24 8t36 4q39 0 74 -14.5t60.5 -39.5t40.5 -59t15 -73v-305q0 -8 -6 -14t-14 -6h-90q-8 0 -14 6t-6 14v305q0 25 -19.5 42.5t-55.5 17.5t-55.5 -17.5t-19.5 -42.5v-305
q0 -8 -6 -14t-14 -6h-90z" />
    <glyph glyph-name="i" unicode="i" 
d="M366 586q0 -16 -16 -16h-108q-16 0 -16 16v108q0 6 4.5 11t11.5 5h108q7 0 11.5 -5t4.5 -11v-108zM120 373q-8 0 -14 6t-6 14v87q0 8 6 14t14 6h224q7 0 11.5 -5t4.5 -11v-344q0 -10 10 -10h110q8 0 14 -6t6 -14v-90q0 -8 -6 -14t-14 -6h-370q-8 0 -14 6t-6 14v90
q0 8 6 14t14 6h110q10 0 10 10v223q0 10 -10 10h-100z" />
    <glyph glyph-name="j" unicode="j" 
d="M438 586q0 -16 -16 -16h-108q-16 0 -16 16v108q0 6 4.5 11t11.5 5h108q7 0 11.5 -5t4.5 -11v-108zM432 -32q0 -39 -15 -72t-41 -56.5t-60.5 -37t-73.5 -13.5t-73.5 13.5t-60.5 38t-41 57.5t-15 72q0 8 6 14t14 6h90q8 0 14 -6t6 -14q0 -25 17.5 -38t42.5 -13t42.5 13
t17.5 38v391q0 10 -10 10h-120q-8 0 -14 6t-6 14v89q0 8 6 14t14 6h244q7 0 11.5 -5t4.5 -11v-516z" />
    <glyph glyph-name="k" unicode="k" 
d="M227 188q-2 3 -6 2.5t-4 -5.5v-165q0 -8 -6 -14t-14 -6h-90q-8 0 -14 6t-6 14v670q0 8 6 14t14 6h90q8 0 14 -6t6 -14v-349q0 -5 4 -5.5t6 2.5l146 149q4 4 9 8.5t16 4.5h99q16 0 20 -12.5t-4 -20.5l-179 -185q-14 -14 1 -30l193 -219q9 -10 3.5 -21.5t-19.5 -11.5h-104
q-11 0 -16.5 5.5l-9.5 9.5z" />
    <glyph glyph-name="l" unicode="l" 
d="M110 583q-8 0 -14 6t-6 14v87q0 8 6 14t14 6h224q7 0 11.5 -5t4.5 -11v-554q0 -10 10 -10h120q8 0 14 -6t6 -14v-90q0 -8 -6 -14t-14 -6h-380q-8 0 -14 6t-6 14v90q0 8 6 14t14 6h110q10 0 10 10v433q0 10 -10 10h-100z" />
    <glyph glyph-name="m" unicode="m" 
d="M298 484q20 16 41.5 21t50.5 5q32 0 56.5 -13t41.5 -34.5t25.5 -50.5t8.5 -62v-330q0 -8 -6 -14t-14 -6h-80q-8 0 -14 6t-6 14v340q0 14 -10.5 24.5t-24.5 10.5t-24.5 -10.5t-10.5 -24.5v-340q0 -8 -6 -14t-14 -6h-75q-8 0 -14 6t-6 14v340q0 14 -10.5 24.5t-24.5 10.5
t-24.5 -10.5t-10.5 -24.5v-340q0 -8 -6 -14t-14 -6h-80q-8 0 -14 6t-6 14v460q0 8 6 14t14 6h30q9 0 13 -3t7 -7t6.5 -7t11.5 -3q6 0 13 4.5t17 10.5t23 10.5t32 4.5q20 0 38 -4.5t35 -20.5q6 -6 13 -6t12 5z" />
    <glyph glyph-name="n" unicode="n" 
d="M185 476q11 0 21 5.5t22.5 12t28 12t38.5 5.5q39 0 73 -14.5t59 -39.5t39 -59t14 -73v-305q0 -8 -6 -14t-14 -6h-90q-8 0 -14 6t-6 14v306q0 25 -19.5 42t-55.5 17q-35 0 -55 -16t-20 -39v-310q0 -8 -6 -14t-14 -6h-90q-8 0 -14 6t-6 14v460q0 8 6 14t14 6h50
q9 0 14 -3.5t9 -8.5q5 -5 9.5 -8.5t12.5 -3.5z" />
    <glyph glyph-name="o" unicode="o" 
d="M274 511q46 0 82.5 -14.5t62.5 -39.5t42 -59t21 -73q2 -15 3 -34.5t1 -40.5t-1 -40.5t-3 -34.5q-5 -39 -20.5 -73t-42 -59t-62.5 -39.5t-82 -14.5t-82.5 14.5t-63 39.5t-42 59t-20.5 73q-2 15 -3 34.5t-1 40.5t1 40.5t3 34.5q5 39 20.5 73t42 59t62.5 39.5t82 14.5z
M274 119q38 0 56 15.5t22 40.5q2 15 3 34.5t1 40.5t-1 40.5t-3 34.5q-4 25 -22 40.5t-56 15.5t-55 -13.5t-22 -42.5q-2 -15 -3.5 -34.5t-1.5 -40.5t1.5 -40.5t3.5 -34.5q4 -26 21.5 -41t55.5 -15z" />
    <glyph glyph-name="p" unicode="p" 
d="M283 385q-37 0 -55.5 -17t-20.5 -43q-1 -15 -1.5 -34.5t-0.5 -40.5t0.5 -40.5t1.5 -34.5q2 -29 20.5 -44.5t55.5 -15.5q36 0 54.5 17.5t20.5 42.5q1 15 1.5 34.5t0.5 40.5t-0.5 40.5t-1.5 34.5q-2 25 -20.5 42.5t-54.5 17.5zM298 511q39 0 72.5 -14.5t58.5 -39.5
t40.5 -59t18.5 -73q1 -15 1.5 -34.5t0.5 -40.5t-0.5 -40.5t-1.5 -34.5q-3 -39 -18.5 -73t-40.5 -59t-58.5 -39.5t-72.5 -14.5q-23 0 -36 3.5t-24 8.5t-20.5 0.5t-9.5 -21.5v-160q0 -8 -6 -14t-14 -6h-90q-8 0 -14 6t-6 14v660q0 8 6 14t14 6h50q7 0 14 -7q5 -5 11 -10.5
t14 -5.5q11 0 19 5.5t19.5 11.5t28 11.5t44.5 5.5z" />
    <glyph glyph-name="q" unicode="q" 
d="M266 385q-36 0 -54.5 -17.5t-20.5 -42.5q-1 -15 -1.5 -34.5t-0.5 -40.5t0.5 -40.5t1.5 -34.5q2 -25 20.5 -42.5t54.5 -17.5q37 0 55.5 15.5t20.5 44.5q1 15 1.5 34.5t0.5 40.5t-0.5 40.5t-1.5 34.5q-2 26 -20.5 43t-55.5 17zM251 511q28 0 44.5 -5.5t28 -11.5t19.5 -11.5
t19 -5.5q8 0 14 5.5t11 10.5q7 7 14 7h50q8 0 14 -6t6 -14v-660q0 -8 -6 -14t-14 -6h-90q-8 0 -14 6t-6 14v160q0 17 -9.5 21.5t-20.5 -0.5t-24 -8.5t-36 -3.5q-39 0 -72.5 14.5t-58.5 39.5t-40.5 59t-18.5 73q-1 15 -1.5 34.5t-0.5 40.5t0.5 40.5t1.5 34.5q3 39 18.5 73
t40.5 59t58.5 39.5t72.5 14.5z" />
    <glyph glyph-name="r" unicode="r" 
d="M372 336q0 25 -21.5 38t-53.5 13t-56 -14t-24 -46v-307q0 -8 -6 -14t-14 -6h-90q-8 0 -14 6t-6 14v460q0 8 6 14t14 6h50q9 0 14.5 -3.5t10.5 -7.5q5 -5 10 -8.5t13 -3.5q12 0 21 5.5t21 11.5t29.5 11.5t45.5 5.5q39 0 72 -12.5t57 -35.5t37.5 -55.5t13.5 -71.5
q0 -8 -6 -14t-14 -6h-90q-8 0 -14 6t-6 14z" />
    <glyph glyph-name="s" unicode="s" 
d="M62 164q0 8 6 14t14 6h76q18 0 23 -6t7 -19q3 -29 28 -40.5t60 -11.5q41 0 66.5 12t25.5 35q0 13 -8 21t-21 13t-29.5 7.5t-33.5 4.5q-31 3 -66 12t-65 27.5t-50 47.5t-20 73q0 33 18 61t46.5 48t64.5 31t72 11q37 0 73 -10t63.5 -29.5t44.5 -48.5t17 -68q0 -14 -6 -19.5
t-14 -5.5h-75q-8 0 -14.5 4.5t-8.5 20.5q-4 25 -28 35.5t-52 10.5q-34 0 -57 -10t-23 -31q0 -11 6.5 -18.5t18 -12t26 -7t29.5 -5.5q33 -6 70 -13.5t68.5 -24t52.5 -46.5t21 -81q0 -37 -17 -67t-46 -51.5t-67.5 -33t-81.5 -11.5q-41 0 -79.5 9.5t-68.5 30.5t-48 54.5
t-18 80.5z" />
    <glyph glyph-name="t" unicode="t" 
d="M279 170q0 -25 17.5 -38t42.5 -13t42.5 13t17.5 38q0 8 6 14t14 6h90q8 0 14 -6t6 -14q0 -39 -15 -72t-41 -57.5t-60.5 -38t-73.5 -13.5t-73.5 13.5t-60.5 37t-41 56.5t-15 72v199q0 10 -10 10h-98q-8 0 -14 6t-6 14v80q0 8 6 14t14 6h98q10 0 10 10v153q0 8 6 14t14 6
h90q8 0 14 -6t6 -14v-153q0 -10 10 -10h170q8 0 14 -6t6 -14v-80q0 -8 -6 -14t-14 -6h-170q-10 0 -10 -10v-197z" />
    <glyph glyph-name="u" unicode="u" 
d="M365 20q-11 0 -20.5 -5t-20.5 -10.5t-26.5 -10.5t-37.5 -5q-39 0 -74 14.5t-60.5 39.5t-40.5 59t-15 73v305q0 8 6 14t14 6h90q8 0 14 -6t6 -14v-306q0 -25 19.5 -42t55.5 -17q35 0 55 16t20 39v310q0 8 6 14t14 6h90q8 0 14 -6t6 -14v-460q0 -8 -6 -14t-14 -6h-50
q-9 0 -14 3t-9 7q-5 4 -9.5 7t-12.5 3z" />
    <glyph glyph-name="v" unicode="v" 
d="M380 485q5 15 19 15h100q12 0 17 -7.5t2 -15.5l-170 -462q-6 -15 -19 -15h-106q-13 0 -19 15l-172 462q-3 8 2 15.5t17 7.5h100q14 0 19 -15l98 -285q2 -5 6 -5t6 5z" />
    <glyph glyph-name="w" unicode="w" 
d="M306 390q15 0 19 -15l37 -150q2 -5 6.5 -4.5t5.5 4.5l33 260q1 8 6.5 11.5t12.5 3.5h94q12 0 16.5 -7.5t2.5 -15.5l-79 -462q-3 -15 -19 -15h-109q-16 0 -19 15l-33 153q-2 5 -7.5 5t-6.5 -5l-28 -153q-3 -15 -19 -15h-109q-16 0 -19 15l-81 462q-2 8 2.5 15.5t16.5 7.5
h94q7 0 12.5 -3.5t6.5 -11.5l33 -260q1 -5 6 -4.5t6 4.5l32 150q3 15 19 15h68z" />
    <glyph glyph-name="x" unicode="x" 
d="M192 10q-2 -4 -6.5 -7t-15.5 -3h-101q-14 0 -19 10t3 23l133 216q4 6 4.5 10.5t-4.5 11.5l-116 196q-8 13 -3 23t19 10h93q11 0 15.5 -3t6.5 -7l69 -125q6 -12 12 0l69 125q2 4 6.5 7t15.5 3h93q14 0 19 -10t-3 -23l-118 -196q-5 -7 -4.5 -11.5t4.5 -10.5l132 -216
q8 -13 3 -23t-19 -10h-101q-11 0 -15.5 3t-6.5 7l-75 142q-6 12 -12 0z" />
    <glyph glyph-name="y" unicode="y" 
d="M273 201q2 -6 6 -6t6 6l81 284q4 15 19 15h101q12 0 17 -7.5t2 -15.5l-235 -662q-5 -15 -19 -15h-92q-12 0 -17 7.5t-2 15.5l70 187q2 7 2.5 10.5t-2.5 11.5l-166 445q-3 8 2 15.5t17 7.5h103q14 0 19 -15z" />
    <glyph glyph-name="z" unicode="z" 
d="M310 370q3 4 1.5 7t-6.5 3h-205q-8 0 -14 6t-6 14v80q0 8 6 14t14 6h348q8 0 14 -6t6 -14v-87q0 -14 -6 -23.5t-14 -17.5l-214 -222q-3 -4 -1.5 -7t6.5 -3h219q8 0 14 -6t6 -14v-80q0 -8 -6 -14t-14 -6h-368q-8 0 -14 6t-6 14v90q0 10 1.5 15.5t11.5 15.5z" />
    <glyph glyph-name="braceleft" unicode="{" 
d="M156 255q0 8 -5.5 12.5t-12.5 7.5l-11 5q-8 3 -14 7.5t-6 12.5v40q0 8 6 12.5t14 7.5l11 5q7 3 12.5 7.5t5.5 12.5v125q0 41 16.5 79t46.5 67t71 46.5t91 17.5h72q8 0 14 -6t6 -14v-88q0 -8 -6 -14t-14 -6h-72q-17 0 -33.5 -4t-30 -13t-22 -25t-8.5 -40l-1 -125
q0 -13 -4.5 -23.5t-11 -19t-13.5 -14t-12 -8.5q5 -3 12 -9t13.5 -14t11 -18.5t4.5 -23.5v-135q0 -37 25.5 -59.5t69.5 -22.5h72q8 0 14 -6t6 -14v-88q0 -8 -6 -14t-14 -6h-72q-45 0 -86 14.5t-71.5 41.5t-49 66t-18.5 88v135z" />
    <glyph glyph-name="bar" unicode="|" 
d="M337 -50q0 -8 -6 -14t-14 -6h-85q-8 0 -14 6t-6 14v750q0 8 6 14t14 6h85q8 0 14 -6t6 -14v-750z" />
    <glyph glyph-name="braceright" unicode="}" 
d="M394 120q0 -49 -18.5 -88t-49 -66t-71.5 -41.5t-86 -14.5h-72q-8 0 -14 6t-6 14v88q0 8 6 14t14 6h72q44 0 69.5 22.5t25.5 59.5v135q0 13 4.5 23.5t11 18.5t13.5 14t12 9q-5 3 -12 8.5t-13.5 14t-11 19t-4.5 23.5l-1 125q0 24 -8.5 40t-22 25t-30 13t-33.5 4h-72
q-8 0 -14 6t-6 14v88q0 8 6 14t14 6h72q49 0 90.5 -17.5t71.5 -46.5t46.5 -67t16.5 -79v-125q0 -8 5.5 -12.5t12.5 -7.5l11 -5q8 -3 14 -7.5t6 -12.5v-40q0 -8 -6 -12.5t-14 -7.5l-11 -5q-7 -3 -12.5 -7.5t-5.5 -12.5v-135z" />
    <glyph glyph-name="asciitilde" unicode="~" 
d="M161 220q-8 0 -20.5 -2t-24.5 -5.5t-22.5 -8.5t-14.5 -10q-8 -10 -18.5 -8t-10.5 17v80q0 13 10.5 24.5t26.5 19.5t35.5 12.5t38.5 4.5q39 0 64.5 -7t48 -15.5t48.5 -15.5t67 -7q8 0 20.5 2t24.5 5.5t22.5 8.5t14.5 10q8 10 18.5 8t10.5 -17v-80q0 -14 -10.5 -25
t-26.5 -19t-35.5 -12.5t-38.5 -4.5q-39 0 -64.5 7t-48 15.5t-49 15.5t-66.5 7z" />
    <glyph glyph-name="exclamdown" unicode="&#xa1;" 
d="M345 -184q0 -6 -4.5 -11t-11.5 -5h-108q-7 0 -11.5 5t-4.5 11v451q0 6 4.5 11t11.5 5h108q7 0 11.5 -5t4.5 -11v-451zM355 360q0 -8 -6 -14t-14 -6h-120q-8 0 -14 6t-6 14v120q0 8 6 14t14 6h120q8 0 14 -6t6 -14v-120z" />
    <glyph glyph-name="cent" unicode="&#xa2;" 
d="M357 -1q-15 -6 -15 -17v-32q0 -8 -6 -14t-14 -6h-85q-8 0 -14 6t-6 14v33q0 7 -4.5 10t-11.5 5q-57 20 -90 68t-41 109q-2 15 -3 34.5t-1 40.5t1 40.5t3 34.5q8 61 40.5 109t90.5 68q7 2 11.5 5t4.5 10v33q0 8 6 14t14 6h85q8 0 14 -6t6 -14v-33q0 -12 14 -17
q55 -20 91 -67.5t36 -117.5q0 -8 -4.5 -14t-12.5 -6h-89q-7 0 -12.5 4t-6.5 12q-2 37 -24 55.5t-57 18.5q-38 0 -55.5 -15.5t-21.5 -44.5q-2 -15 -3 -34.5t-1 -40.5t1 -40.5t3 -34.5q3 -26 21.5 -43t56.5 -17q33 0 53.5 16.5t26.5 57.5q3 16 19 16h89q8 0 12.5 -6t4.5 -14
q0 -69 -35.5 -116.5t-90.5 -69.5z" />
    <glyph glyph-name="sterling" unicode="&#xa3;" 
d="M369 530q0 20 -13.5 35.5t-40.5 15.5t-40 -15.5t-13 -35.5v-106q0 -10 10 -10h120q8 0 14 -6t6 -14v-75q0 -8 -6 -14t-14 -6h-119q-5 0 -7.5 -3.5t-2.5 -8.5v-43q0 -43 -5 -66t-12 -35q-7 -11 7 -11h237q8 0 14 -6t6 -14v-92q0 -8 -6 -14t-14 -6h-429q-9 0 -15 6t-6 14
v92q0 8 6 14t14 6q23 0 36.5 7t21 19t10 27t2.5 32v70q0 5 -2.5 8.5t-7.5 3.5h-41q-8 0 -14 6t-6 14v75q0 8 6 14t14 6h41q10 0 10 10v106q0 38 14.5 71.5t39.5 58t59 39t72 14.5t72 -14.5t59 -39t39.5 -58t14.5 -71.5v-20q0 -8 -6 -14t-14 -6h-91q-8 0 -14 6t-6 14v20z" />
    <glyph glyph-name="currency" unicode="&#xa4;" 
d="M544 510q5 -6 5.5 -14t-5.5 -14l-78 -79q11 -22 17 -46t6 -50q0 -27 -6.5 -51.5t-17.5 -46.5l80 -80q6 -6 5.5 -14t-6.5 -13l-65 -65q-5 -6 -13 -6.5t-14 5.5l-80 79q-23 -11 -47.5 -17.5t-51.5 -6.5q-53 0 -97 23l-77 -77q-6 -6 -14 -5.5t-14 5.5l-65 65q-5 6 -5.5 14
t5.5 14l76 76q-25 47 -25 101t24 98l-76 78q-6 6 -5.5 14t6.5 13l65 65q5 6 13 6.5t14 -5.5l76 -77q22 11 47 17.5t52 6.5q54 0 101 -25l77 77q6 6 14 5.5t14 -5.5zM172 307q0 -21 8 -39t22 -32t32 -22t39 -8t39.5 8t32.5 22t22 32t8 39t-8 39.5t-22 32.5t-32.5 22t-39.5 8
t-39 -8t-32 -22t-22 -32.5t-8 -39.5z" />
    <glyph glyph-name="yen" unicode="&#xa5;" 
d="M73 214q-8 0 -14 6t-6 14v67q0 8 6 14t14 6h96l-17 42h-79q-8 0 -14 6t-6 14v67q0 8 6 14t14 6h36l-81 202q-5 11 0.5 19.5t15.5 8.5h107q14 0 19 -15l99 -277q1 -4 5 -4h2q4 0 5 4l99 277q5 15 19 15h107q10 0 15.5 -8.5t0.5 -19.5l-82 -202h36q8 0 14 -6t6 -14v-67
q0 -8 -6 -14t-14 -6h-79l-17 -42h96q8 0 14 -6t6 -14v-67q0 -8 -6 -14t-14 -6h-134v-194q0 -8 -6 -14t-14 -6h-94q-8 0 -14 6t-6 14v194h-135z" />
    <glyph glyph-name="brokenbar" unicode="&#xa6;" 
d="M333 420q0 -8 -6 -14t-14 -6h-76q-8 0 -14 6t-6 14v267q0 8 6 14t14 6h76q8 0 14 -6t6 -14v-267zM333 20q0 -8 -6 -14t-14 -6h-76q-8 0 -14 6t-6 14v267q0 8 6 14t14 6h76q8 0 14 -6t6 -14v-267z" />
    <glyph glyph-name="section" unicode="&#xa7;" 
d="M330 147q8 -7 12.5 -4.5t6.5 4.5q20 20 20 38q0 9 -4.5 21t-17.5 23l-127 111q-8 7 -12.5 4.5t-6.5 -4.5q-8 -10 -13.5 -20.5t-5.5 -21.5q0 -10 4.5 -20.5t17.5 -21.5zM84 -11q0 9 6 15t14 6h84q8 0 14 -6t6 -15v-24q0 -26 16.5 -39t43.5 -13q23 0 38 10.5t15 34.5
q0 14 -8 25.5t-19 21.5q-41 35 -90 77t-89 79q-33 31 -47.5 63t-14.5 79q0 39 22.5 71t54.5 57q-32 45 -32 98q0 42 16 74.5t42 54t59 33t67 11.5q37 0 70 -12.5t57.5 -35.5t38.5 -56t14 -73v-14q0 -9 -6 -15t-14 -6h-84q-8 0 -14 6t-6 15v14q0 22 -15 37t-41 15
q-23 0 -38.5 -11.5t-15.5 -32.5q0 -34 24 -53l179 -155q65 -57 65 -141q0 -41 -21.5 -75.5t-50.5 -58.5q28 -37 28 -92q0 -41 -16 -72.5t-42 -53t-59 -32.5t-67 -11q-37 0 -70.5 11t-58.5 32.5t-40 54.5t-15 78v24z" />
    <glyph glyph-name="dieresis" unicode="&#xa8;" 
d="M239 600q0 -8 -6 -14t-14 -6h-90q-8 0 -14 6t-6 14v90q0 8 6 14t14 6h90q8 0 14 -6t6 -14v-90zM439 600q0 -8 -6 -14t-14 -6h-90q-8 0 -14 6t-6 14v90q0 8 6 14t14 6h90q8 0 14 -6t6 -14v-90z" />
    <glyph glyph-name="copyright" unicode="&#xa9;" 
d="M18 350q0 53 20 100t55 81.5t82 54.5t100 20t100 -20t81.5 -54.5t54.5 -81.5t20 -100t-20 -100t-54.5 -82t-81.5 -55t-100 -20t-100 20t-82 55t-55 82t-20 100zM93 350q0 -38 14 -71t39 -58t58 -39t71 -14q37 0 70 14t58 39t39 58t14 71q0 37 -14 70t-39 58t-58 39
t-70 14q-38 0 -71 -14t-58 -39t-39 -58t-14 -70zM379 305q0 -43 -28 -72.5t-76 -29.5q-53 0 -79.5 33t-30.5 80q-2 17 -2 31t2 31q3 46 30 79.5t80 33.5q48 0 76 -29.5t28 -72.5q0 -11 -9 -11h-46q-4 0 -7.5 1.5t-3.5 6.5q0 21 -11 31t-27 10q-39 0 -44 -49q-2 -19 -2 -31
t2 -31q2 -23 13 -36.5t31 -13.5q15 0 26 10t11 31q0 5 3.5 7t8.5 2h43q5 0 8.5 -3t3.5 -8z" />
    <glyph glyph-name="ordfeminine" unicode="&#xaa;" 
d="M188 550q-13 0 -17.5 -8t-4.5 -12q0 -11 8 -16.5t22 -5.5q17 0 33.5 6t16.5 22v10q0 4 -4 4h-54zM208 648q-8 0 -20.5 -3t-17.5 -13q-3 -6 -5 -7.5t-9 -1.5h-43q-10 0 -10 10q0 34 31 54.5t76 20.5q21 0 40 -5t34 -16t24 -28t9 -41v-155q0 -10 -10 -10h-32q-4 0 -7 3
q-2 3 -3.5 6.5t-6.5 3.5q-7 0 -24.5 -9.5t-45.5 -9.5q-44 0 -69 21.5t-25 61.5q0 13 5.5 26.5t16 25t26.5 19t38 7.5h61q5 0 5 5v8q0 15 -10.5 21t-27.5 6z" />
    <glyph glyph-name="guillemotleft" unicode="&#xab;" 
d="M163 435q2 4 8 9.5t17 5.5h80q14 0 19.5 -8.5t-3.5 -24.5l-85 -145q-8 -11 0 -24l85 -145q9 -16 3.5 -24.5t-19.5 -8.5h-80q-11 0 -17 5.5t-8 9.5l-96 161q-5 8 -5 14t5 14zM361 435q2 4 8 9.5t17 5.5h80q14 0 19.5 -8.5t-3.5 -24.5l-85 -145q-8 -11 0 -24l85 -145
q9 -16 3.5 -24.5t-19.5 -8.5h-80q-11 0 -17 5.5t-8 9.5l-96 161q-5 8 -5 14t5 14z" />
    <glyph glyph-name="logicalnot" unicode="&#xac;" 
d="M360 160q0 10 -10 10h-270q-8 0 -14 6t-6 14v90q0 8 6 14t14 6h390q8 0 14 -6t6 -14v-190q0 -8 -6 -14t-14 -6h-90q-8 0 -14 6t-6 14v70z" />
    <glyph glyph-name="registered" unicode="&#xae;" 
d="M13 350q0 53 20 100t55 81.5t82 54.5t100 20t100 -20t81.5 -54.5t54.5 -81.5t20 -100t-20 -100t-54.5 -82t-81.5 -55t-100 -20t-100 20t-82 55t-55 82t-20 100zM88 350q0 -38 14 -71t39 -58t58 -39t71 -14q37 0 70 14t58 39t39 58t14 71q0 37 -14 70t-39 58t-58 39
t-70 14q-38 0 -71 -14t-58 -39t-39 -58t-14 -70zM251 420q-2 0 -4 -1.5t-2 -4.5v-34q0 -2 2 -3t4 -1h40q11 0 16.5 7t5.5 15t-5.5 15t-16.5 7h-40zM338 326q-8 -5 -11 -6.5t1 -9.5l41 -78q4 -6 1.5 -11t-10.5 -5h-41q-7 0 -10 3t-6 8l-38 76q-4 7 -9 7h-5q-2 0 -4 -1.5
t-2 -3.5v-78q0 -11 -10 -11h-45q-3 0 -6 3t-3 8v247q0 5 3 8t6 3h101q18 0 33.5 -7t27.5 -19t18.5 -27.5t6.5 -33.5q0 -23 -10.5 -42t-28.5 -30z" />
    <glyph glyph-name="macron" unicode="&#xaf;" 
d="M132 596q-8 0 -14 6t-6 14v58q0 8 6 14t14 6h262q8 0 14 -6t6 -14v-58q0 -8 -6 -14t-14 -6h-262z" />
    <glyph glyph-name="degree" unicode="&#xb0;" 
d="M126 585q0 31 11.5 58t32 47t47.5 31.5t58 11.5t58 -11.5t47 -31.5t31.5 -47t11.5 -58t-11.5 -58t-31.5 -47.5t-47 -32t-58 -11.5t-58 11.5t-47.5 32t-32 47.5t-11.5 58zM225 585q0 -20 15 -35t35 -15t34.5 15t14.5 35t-14.5 34.5t-34.5 14.5t-35 -14.5t-15 -34.5z" />
    <glyph glyph-name="plusminus" unicode="&#xb1;" 
d="M200 483q10 0 10 10v125q0 8 6 14t14 6h89q8 0 14 -6t6 -14v-125q0 -10 10 -10h126q8 0 14 -6t6 -14v-89q0 -8 -6 -14t-14 -6h-126q-10 0 -10 -10v-126q0 -8 -6 -14t-14 -6h-89q-8 0 -14 6t-6 14v126q0 10 -10 10h-125q-8 0 -14 6t-6 14v89q0 8 6 14t14 6h125zM472 129
q8 0 14 -6t6 -14v-89q0 -8 -6 -14t-14 -6h-394q-8 0 -14 6t-6 14v89q0 8 6 14t14 6h394z" />
    <glyph glyph-name="twosuperior" unicode="&#xb2;" 
d="M303 602q0 9 -7 16.5t-20 7.5q-18 0 -24 -9.5t-6 -20.5v-9q0 -10 -10 -10h-64q-4 0 -7 3.5t-3 6.5v8q0 24 9 44.5t25 35.5t37 23.5t44 8.5q48 0 81 -27.5t33 -75.5q0 -23 -13 -43.5t-23 -30.5l-84 -84q-2 -2 -2 -6.5t8 -4.5h109q5 0 7.5 -3.5t2.5 -6.5v-65q0 -10 -10 -10
h-217q-10 0 -10 10v79q0 8 4 12l107 106q15 14 24 25t9 20z" />
    <glyph glyph-name="threesuperior" unicode="&#xb3;" 
d="M308 462q0 18 -12 25.5t-22 7.5h-6q-10 0 -10 10v42q0 10 10 10h6q11 0 21.5 8t10.5 25q0 15 -8.5 24t-22.5 9q-13 0 -21.5 -8.5t-8.5 -19.5v-8q0 -10 -10 -10h-64q-10 0 -10 10v8q0 23 9 43.5t25 35.5t36.5 24t43.5 9t43.5 -9t36 -24t24.5 -35.5t9 -43.5q0 -18 -7 -35
t-17 -29q-4 -5 0 -7q14 -11 20.5 -29.5t6.5 -36.5q0 -24 -9 -45t-25 -36.5t-37 -24.5t-45 -9t-45 9t-36.5 24.5t-25 36.5t-9.5 45v6q0 10 10 10h63q10 0 10 -10v-6q0 -14 9 -22.5t24 -8.5t24 9t9 26z" />
    <glyph glyph-name="acute" unicode="&#xb4;" 
d="M375 730q14 0 17 -9t-5 -18l-115 -121q-5 -5 -10.5 -8.5t-19.5 -3.5h-69q-10 0 -16 9t3 21l82 114q4 5 9.5 10.5t16.5 5.5h107z" />
    <glyph glyph-name="uni00B5" unicode="&#xb5;" 
d="M70 -180q0 166 0.5 330t0.5 330q0 8 5.5 14t13.5 6h60q7 0 16 0.5t16.5 -1t12.5 -6t5 -13.5v-306q0 -25 19.5 -42t55.5 -17q35 0 55 16t20 39v310q0 8 6 14t14 6h90q8 0 14 -6t6 -14v-460q0 -8 -6 -14t-14 -6h-50q-9 0 -14 3t-9 7t-9 7t-13 3q-10 0 -17.5 -4.5
l-17.5 -10.5t-23.5 -10.5t-34.5 -4.5q-14 0 -24 3.5t-18 7.5q-11 5 -20.5 0.5t-9.5 -21.5v-160q0 -8 -6 -14t-14 -6h-90q-8 0 -14 6t-6 14z" />
    <glyph glyph-name="paragraph" unicode="&#xb6;" 
d="M210 360q-33 0 -62 14t-51 37t-34.5 54t-12.5 65q0 35 13.5 66t36.5 54t54 36.5t66 13.5h260q8 0 14 -6t6 -14v-760q0 -8 -6 -14t-14 -6h-60q-8 0 -14 6t-6 14v675q0 10 -10 10h-60q-10 0 -10 -10v-675q0 -8 -6 -14t-14 -6h-60q-8 0 -14 6t-6 14v430q0 10 -10 10z" />
    <glyph glyph-name="periodcentered" unicode="&#xb7;" 
d="M366 183q0 -8 -6 -14t-14 -6h-143q-8 0 -14 6t-6 14v143q0 8 6 14t14 6h143q8 0 14 -6t6 -14v-143z" />
    <glyph glyph-name="cedilla" unicode="&#xb8;" 
d="M326 -176q-6 -24 -32 -24h-62q-24 0 -29 14t-1 25l29 92q7 24 32 24h54q24 0 28.5 -13.5t1.5 -25.5z" />
    <glyph glyph-name="onesuperior" unicode="&#xb9;" 
d="M243 582q0 7 -5 7.5t-8 -2.5l-53 -40q-7 -5 -14.5 -1t-7.5 13v55q0 6 -0.5 10.5t6.5 12.5l48 46q5 5 13.5 11t22.5 6h74q10 0 10 -10v-250q0 -5 5 -5h52q10 0 10 -10v-65q0 -10 -10 -10h-216q-10 0 -10 10v65q0 10 10 10h68q5 0 5 5v142z" />
    <glyph glyph-name="ordmasculine" unicode="&#xba;" 
d="M215 634q-38 0 -44 -37q-3 -21 0 -41q3 -15 15 -24.5t29 -9.5t29 9.5t15 24.5q3 20 0 41q-6 37 -44 37zM215 711q19 0 38 -6.5t35 -20t27.5 -34t14.5 -47.5q2 -15 2 -26t-2 -25q-3 -26 -14 -46t-27 -33.5t-35.5 -20.5t-38.5 -7t-38.5 7t-35.5 20.5t-27 33.5t-14 46
q-2 14 -2 25t2 26q3 27 14.5 47.5t27.5 34t35 20t38 6.5z" />
    <glyph glyph-name="guillemotright" unicode="&#xbb;" 
d="M482 274q5 -8 5 -14t-5 -14l-96 -161q-2 -4 -8 -9.5t-17 -5.5h-80q-14 0 -19.5 8.5t3.5 24.5l85 145q8 13 0 24l-85 145q-9 16 -3.5 24.5t19.5 8.5h80q11 0 17 -5.5t8 -9.5zM284 274q5 -8 5 -14t-5 -14l-96 -161q-2 -4 -8 -9.5t-17 -5.5h-80q-14 0 -19.5 8.5t3.5 24.5
l85 145q8 13 0 24l-85 145q-9 16 -3.5 24.5t19.5 8.5h80q11 0 17 -5.5t8 -9.5z" />
    <glyph glyph-name="onequarter" unicode="&#xbc;" 
d="M103 688q4 4 10 8t15 4h68q10 0 10 -10v-330q0 -10 -10 -10h-72q-10 0 -10 10v214q0 5 -3.5 5.5t-5.5 -1.5l-68 -57q-5 -5 -11 -2.5t-6 10.5v66q0 6 1 11.5t7 10.5zM507 135q10 0 10 -10v-60q0 -10 -10 -10h-22q-5 0 -5 -5v-40q0 -10 -10 -10h-60q-10 0 -10 10v40
q0 5 -5 5h-128q-10 0 -10 10v69q0 5 2.5 9.5t5.5 9.5l126 190q4 7 10 7h69q10 0 10 -10v-200q0 -5 5 -5h22zM347 141q-4 -6 3 -6h45q5 0 5 5v75q0 3 -2 3.5t-4 -1.5zM131 15q-9 -15 -21 -15h-50q-10 0 -16 8.5t0 19.5l380 657q9 15 22 15h48q10 0 16 -9t0 -19z" />
    <glyph glyph-name="onehalf" unicode="&#xbd;" 
d="M103 688q4 4 10 8t15 4h68q10 0 10 -10v-330q0 -10 -10 -10h-72q-10 0 -10 10v214q0 5 -3.5 5.5t-5.5 -1.5l-68 -57q-5 -5 -11 -2.5t-6 10.5v66q0 6 1 11.5t7 10.5zM131 15q-9 -15 -21 -15h-50q-10 0 -16 8.5t0 19.5l380 657q9 15 22 15h48q10 0 16 -9t0 -19zM443 252
q0 9 -7 16.5t-20 7.5q-18 0 -24 -9.5t-6 -20.5v-9q0 -10 -10 -10h-64q-4 0 -7 3.5t-3 6.5v8q0 24 9 44.5t25 35.5t37 23.5t44 8.5q48 0 81 -27.5t33 -75.5q0 -23 -13 -43.5t-23 -30.5l-84 -84q-2 -2 -2 -6.5t8 -4.5h109q5 0 7.5 -3.5t2.5 -6.5v-65q0 -10 -10 -10h-217
q-10 0 -10 10v79q0 8 4 12l107 106q15 14 24 25t9 20z" />
    <glyph glyph-name="threequarters" unicode="&#xbe;" 
d="M524 135q10 0 10 -10v-60q0 -10 -10 -10h-22q-5 0 -5 -5v-40q0 -10 -10 -10h-60q-10 0 -10 10v40q0 5 -5 5h-128q-10 0 -10 10v69q0 5 2.5 9.5t5.5 9.5l126 190q4 7 10 7h69q10 0 10 -10v-200q0 -5 5 -5h22zM364 141q-4 -6 3 -6h45q5 0 5 5v75q0 3 -2 3.5t-4 -1.5z
M153 15q-9 -15 -21 -15h-50q-10 0 -16 8.5t0 19.5l380 657q9 15 22 15h48q10 0 16 -9t0 -19zM178 454q0 16 -8.5 27t-28.5 11h-6q-10 0 -10 10v54q0 10 10 10h6q17 0 25 9.5t8 24.5t-9.5 22.5t-23.5 7.5q-13 0 -23 -8.5t-10 -21.5v-7q0 -10 -10 -10h-64q-10 0 -10 10v7
q0 45 30 75t87 30q22 0 43 -6.5t37 -19.5t26 -33t10 -46q0 -22 -11 -39.5t-25 -25.5q-3 -2 -2.5 -4.5t2.5 -4.5q16 -9 28.5 -26.5t12.5 -45.5q0 -27 -10 -47.5t-27 -34.5t-39 -21t-45 -7q-62 0 -92 31.5t-30 78.5v5q0 10 10 10h63q10 0 10 -10v-5q0 -14 11 -23.5t28 -9.5
q14 0 25.5 9t11.5 24z" />
    <glyph glyph-name="questiondown" unicode="&#xbf;" 
d="M204 -6q0 -32 20.5 -51t50.5 -19q34 0 53 22t19 51v17q0 8 6 14t14 6h100q8 0 14 -6t6 -14v-15q0 -44 -17 -83t-45.5 -68t-67.5 -46t-82 -17q-44 0 -82.5 15t-67 42t-45 64t-16.5 81q0 31 9 57.5t23 48.5t31 39t34 29q28 21 37 39t9 53v10q0 8 6 14t14 6h100q8 0 14 -6
t6 -14v-10q0 -12 0.5 -26.5t-2 -31t-8.5 -33.5t-18 -33q-17 -21 -39 -35.5t-38 -29.5t-27 -34t-11 -36zM197 480q0 8 6 14t14 6h120q8 0 14 -6t6 -14v-120q0 -8 -6 -14t-14 -6h-120q-8 0 -14 6t-6 14v120z" />
    <glyph glyph-name="Agrave" unicode="&#xc0;" 
d="M154 15q-3 -15 -19 -15h-105q-12 0 -17 6.5t-3 13.5l179 665q3 15 19 15h134q16 0 19 -15l178 -665q2 -7 -3 -13.5t-17 -6.5h-105q-14 0 -19 15l-31 103q-2 6 -5 10.5t-10 4.5h-152q-12 0 -15 -15zM220 284q-3 -11 8 -11h92q11 0 8 11l-48 240q-1 4 -5 4h-2q-4 0 -5 -4z
M220 910q11 0 16.5 -5.5t9.5 -10.5l82 -114q9 -12 3 -21t-16 -9h-69q-14 0 -19.5 3.5t-10.5 8.5l-115 121q-8 9 -5 18t17 9h107z" />
    <glyph glyph-name="Aacute" unicode="&#xc1;" 
d="M154 15q-3 -15 -19 -15h-105q-12 0 -17 6.5t-3 13.5l179 665q3 15 19 15h134q16 0 19 -15l178 -665q2 -7 -3 -13.5t-17 -6.5h-105q-14 0 -19 15l-31 103q-2 6 -5 10.5t-10 4.5h-152q-12 0 -15 -15zM220 284q-3 -11 8 -11h92q11 0 8 11l-48 240q-1 4 -5 4h-2q-4 0 -5 -4z
M427 910q14 0 17 -9t-5 -18l-115 -121q-5 -5 -10.5 -8.5t-19.5 -3.5h-69q-10 0 -16 9t3 21l82 114q4 5 9.5 10.5t16.5 5.5h107z" />
    <glyph glyph-name="Acircumflex" unicode="&#xc2;" 
d="M154 15q-3 -15 -19 -15h-105q-12 0 -17 6.5t-3 13.5l179 665q3 15 19 15h134q16 0 19 -15l178 -665q2 -7 -3 -13.5t-17 -6.5h-105q-14 0 -19 15l-31 103q-2 6 -5 10.5t-10 4.5h-152q-12 0 -15 -15zM220 284q-3 -11 8 -11h92q11 0 8 11l-48 240q-1 4 -5 4h-2q-4 0 -5 -4z
M235 766q-4 -5 -12 -10.5t-19 -5.5h-95q-13 0 -14.5 10t3.5 15l119 123q5 5 10.5 8.5t19.5 3.5h62q13 0 18.5 -3.5t10.5 -8.5l119 -123q5 -5 3 -15t-16 -10h-94q-11 0 -19 5.5t-12 10.5l-35 44q-7 10 -14 0z" />
    <glyph glyph-name="Atilde" unicode="&#xc3;" 
d="M154 15q-3 -15 -19 -15h-105q-12 0 -17 6.5t-3 13.5l179 665q3 15 19 15h134q16 0 19 -15l178 -665q2 -7 -3 -13.5t-17 -6.5h-105q-14 0 -19 15l-31 103q-2 6 -5 10.5t-10 4.5h-152q-12 0 -15 -15zM220 284q-3 -11 8 -11h92q11 0 8 11l-48 240q-1 4 -5 4h-2q-4 0 -5 -4z
M367 864q19 0 29.5 6.5t16.5 14.5t15.5 4t9.5 -18v-60q0 -20 -20.5 -35.5t-50.5 -15.5q-24 0 -45.5 4t-43 8.5t-44 8.5t-47.5 4q-17 0 -27.5 -5.5t-18.5 -15.5q-6 -7 -15.5 -3.5t-9.5 17.5v60q0 20 20.5 35.5t50.5 15.5q24 0 45.5 -4t43 -8.5t43.5 -8.5t48 -4z" />
    <glyph glyph-name="Adieresis" unicode="&#xc4;" 
d="M154 15q-3 -15 -19 -15h-105q-12 0 -17 6.5t-3 13.5l179 665q3 15 19 15h134q16 0 19 -15l178 -665q2 -7 -3 -13.5t-17 -6.5h-105q-14 0 -19 15l-31 103q-2 6 -5 10.5t-10 4.5h-152q-12 0 -15 -15zM220 284q-3 -11 8 -11h92q11 0 8 11l-48 240q-1 4 -5 4h-2q-4 0 -5 -4z
M240 780q0 -8 -6 -14t-14 -6h-90q-8 0 -14 6t-6 14v90q0 8 6 14t14 6h90q8 0 14 -6t6 -14v-90zM440 780q0 -8 -6 -14t-14 -6h-90q-8 0 -14 6t-6 14v90q0 8 6 14t14 6h90q8 0 14 -6t6 -14v-90z" />
    <glyph glyph-name="Aring" unicode="&#xc5;" 
d="M154 15q-3 -15 -19 -15h-105q-12 0 -17 6.5t-3 13.5l179 665q3 15 19 15h134q16 0 19 -15l178 -665q2 -7 -3 -13.5t-17 -6.5h-105q-14 0 -19 15l-31 103q-2 6 -5 10.5t-10 4.5h-152q-12 0 -15 -15zM220 284q-3 -11 8 -11h92q11 0 8 11l-48 240q-1 4 -5 4h-2q-4 0 -5 -4z
M159 850q0 24 9 45t25 36.5t37 24.5t45 9t45 -9t36.5 -24.5t24.5 -36.5t9 -45t-9 -45t-24.5 -37t-36.5 -25t-45 -9t-45 9t-37 25t-25 37t-9 45zM243 850q0 -14 9 -23t23 -9t23 9t9 23t-9 23t-23 9t-23 -9t-9 -23z" />
    <glyph glyph-name="AE" unicode="&#xc6;" 
d="M284 118q0 6 -4 10.5t-11 4.5h-87q-12 0 -15 -15l-28 -103q-3 -15 -19 -15h-95q-12 0 -17 6.5t-3 13.5l176 654q2 7 10 16.5t24 9.5h311q8 0 14 -6t6 -14v-100q0 -8 -6 -14t-14 -6h-102q-10 0 -10 -10v-120q0 -10 10 -10h94q8 0 14 -6t6 -14v-100q0 -8 -6 -14t-14 -6h-94
q-10 0 -10 -10v-120q0 -10 10 -10h103q8 0 14 -6t6 -14v-100q0 -8 -6 -14t-14 -6h-223q-8 0 -14 6t-6 14v98zM274 273q10 0 10 11v266q0 10 -10 10h-2q-7 0 -9.5 -3.5t-3.5 -6.5l-54 -266q-3 -11 8 -11h61z" />
    <glyph glyph-name="Ccedilla" unicode="&#xc7;" 
d="M279 130q43 0 69 24.5t29 63.5q1 8 6.5 14t13.5 6h100q8 0 14 -6t6 -14q0 -50 -18 -92t-49.5 -72.5t-75 -47.5t-95.5 -17t-93.5 17.5t-72 48t-49 70.5t-23.5 85q-4 31 -6 67t-2 73t2 72.5t6 67.5q5 45 23.5 85t49 70.5t72 48t93.5 17.5t95.5 -17t75 -47.5t49.5 -72.5
t18 -92q0 -8 -6 -14t-14 -6h-100q-8 0 -13.5 6t-6.5 14q-3 39 -29 63.5t-69 24.5q-46 0 -69.5 -23.5t-27.5 -56.5q-4 -32 -6 -67.5t-2 -72.5t2 -73t6 -67q4 -33 27.5 -56.5t69.5 -23.5zM317 -176q-6 -24 -32 -24h-62q-24 0 -29 14t-1 25l29 92q7 24 32 24h54
q24 0 28.5 -13.5t1.5 -25.5z" />
    <glyph glyph-name="Egrave" unicode="&#xc8;" 
d="M211 430q0 -10 10 -10h225q8 0 14 -6t6 -14v-100q0 -8 -6 -14t-14 -6h-225q-10 0 -10 -10v-120q0 -10 10 -10h237q8 0 14 -6t6 -14v-100q0 -8 -6 -14t-14 -6h-367q-8 0 -14 6t-6 14v660q0 8 6 14t14 6h363q8 0 14 -6t6 -14v-100q0 -8 -6 -14t-14 -6h-233q-10 0 -10 -10
v-120zM220 910q11 0 16.5 -5.5t9.5 -10.5l82 -114q9 -12 3 -21t-16 -9h-69q-14 0 -19.5 3.5t-10.5 8.5l-115 121q-8 9 -5 18t17 9h107z" />
    <glyph glyph-name="Eacute" unicode="&#xc9;" 
d="M211 430q0 -10 10 -10h225q8 0 14 -6t6 -14v-100q0 -8 -6 -14t-14 -6h-225q-10 0 -10 -10v-120q0 -10 10 -10h237q8 0 14 -6t6 -14v-100q0 -8 -6 -14t-14 -6h-367q-8 0 -14 6t-6 14v660q0 8 6 14t14 6h363q8 0 14 -6t6 -14v-100q0 -8 -6 -14t-14 -6h-233q-10 0 -10 -10
v-120zM427 910q14 0 17 -9t-5 -18l-115 -121q-5 -5 -10.5 -8.5t-19.5 -3.5h-69q-10 0 -16 9t3 21l82 114q4 5 9.5 10.5t16.5 5.5h107z" />
    <glyph glyph-name="Ecircumflex" unicode="&#xca;" 
d="M211 430q0 -10 10 -10h225q8 0 14 -6t6 -14v-100q0 -8 -6 -14t-14 -6h-225q-10 0 -10 -10v-120q0 -10 10 -10h237q8 0 14 -6t6 -14v-100q0 -8 -6 -14t-14 -6h-367q-8 0 -14 6t-6 14v660q0 8 6 14t14 6h363q8 0 14 -6t6 -14v-100q0 -8 -6 -14t-14 -6h-233q-10 0 -10 -10
v-120zM235 766q-4 -5 -12 -10.5t-19 -5.5h-95q-13 0 -14.5 10t3.5 15l119 123q5 5 10.5 8.5t19.5 3.5h62q13 0 18.5 -3.5t10.5 -8.5l119 -123q5 -5 3 -15t-16 -10h-94q-11 0 -19 5.5t-12 10.5l-35 44q-7 10 -14 0z" />
    <glyph glyph-name="Edieresis" unicode="&#xcb;" 
d="M211 430q0 -10 10 -10h225q8 0 14 -6t6 -14v-100q0 -8 -6 -14t-14 -6h-225q-10 0 -10 -10v-120q0 -10 10 -10h237q8 0 14 -6t6 -14v-100q0 -8 -6 -14t-14 -6h-367q-8 0 -14 6t-6 14v660q0 8 6 14t14 6h363q8 0 14 -6t6 -14v-100q0 -8 -6 -14t-14 -6h-233q-10 0 -10 -10
v-120zM240 780q0 -8 -6 -14t-14 -6h-90q-8 0 -14 6t-6 14v90q0 8 6 14t14 6h90q8 0 14 -6t6 -14v-90zM440 780q0 -8 -6 -14t-14 -6h-90q-8 0 -14 6t-6 14v90q0 8 6 14t14 6h90q8 0 14 -6t6 -14v-90z" />
    <glyph glyph-name="Igrave" unicode="&#xcc;" 
d="M205 555q0 10 -10 10h-100q-8 0 -14 6t-6 14v95q0 8 6 14t14 6h360q8 0 14 -6t6 -14v-95q0 -8 -6 -14t-14 -6h-100q-10 0 -10 -10v-410q0 -10 10 -10h110q8 0 14 -6t6 -14v-95q0 -8 -6 -14t-14 -6h-380q-8 0 -14 6t-6 14v95q0 8 6 14t14 6h110q10 0 10 10v410zM220 910
q11 0 16.5 -5.5t9.5 -10.5l82 -114q9 -12 3 -21t-16 -9h-69q-14 0 -19.5 3.5t-10.5 8.5l-115 121q-8 9 -5 18t17 9h107z" />
    <glyph glyph-name="Iacute" unicode="&#xcd;" 
d="M205 555q0 10 -10 10h-100q-8 0 -14 6t-6 14v95q0 8 6 14t14 6h360q8 0 14 -6t6 -14v-95q0 -8 -6 -14t-14 -6h-100q-10 0 -10 -10v-410q0 -10 10 -10h110q8 0 14 -6t6 -14v-95q0 -8 -6 -14t-14 -6h-380q-8 0 -14 6t-6 14v95q0 8 6 14t14 6h110q10 0 10 10v410zM427 910
q14 0 17 -9t-5 -18l-115 -121q-5 -5 -10.5 -8.5t-19.5 -3.5h-69q-10 0 -16 9t3 21l82 114q4 5 9.5 10.5t16.5 5.5h107z" />
    <glyph glyph-name="Icircumflex" unicode="&#xce;" 
d="M205 555q0 10 -10 10h-100q-8 0 -14 6t-6 14v95q0 8 6 14t14 6h360q8 0 14 -6t6 -14v-95q0 -8 -6 -14t-14 -6h-100q-10 0 -10 -10v-410q0 -10 10 -10h110q8 0 14 -6t6 -14v-95q0 -8 -6 -14t-14 -6h-380q-8 0 -14 6t-6 14v95q0 8 6 14t14 6h110q10 0 10 10v410zM235 766
q-4 -5 -12 -10.5t-19 -5.5h-95q-13 0 -14.5 10t3.5 15l119 123q5 5 10.5 8.5t19.5 3.5h62q13 0 18.5 -3.5t10.5 -8.5l119 -123q5 -5 3 -15t-16 -10h-94q-11 0 -19 5.5t-12 10.5l-35 44q-7 10 -14 0z" />
    <glyph glyph-name="Idieresis" unicode="&#xcf;" 
d="M205 555q0 10 -10 10h-100q-8 0 -14 6t-6 14v95q0 8 6 14t14 6h360q8 0 14 -6t6 -14v-95q0 -8 -6 -14t-14 -6h-100q-10 0 -10 -10v-410q0 -10 10 -10h110q8 0 14 -6t6 -14v-95q0 -8 -6 -14t-14 -6h-380q-8 0 -14 6t-6 14v95q0 8 6 14t14 6h110q10 0 10 10v410zM240 780
q0 -8 -6 -14t-14 -6h-90q-8 0 -14 6t-6 14v90q0 8 6 14t14 6h90q8 0 14 -6t6 -14v-90zM440 780q0 -8 -6 -14t-14 -6h-90q-8 0 -14 6t-6 14v90q0 8 6 14t14 6h90q8 0 14 -6t6 -14v-90z" />
    <glyph glyph-name="Eth" unicode="&#xd0;" 
d="M44 680q0 8 6 14t14 6h210q46 0 84.5 -17.5t67.5 -48t47.5 -70.5t23.5 -85q8 -63 8 -129t-8 -129q-5 -45 -23.5 -85t-47.5 -70.5t-67.5 -48t-84.5 -17.5h-210q-8 0 -14 6t-6 14v250q0 10 -10 10h-7q-8 0 -14 6t-6 14v100q0 8 6 14t14 6h7q10 0 10 10v250zM184 150
q0 -10 10 -10h80q35 0 56.5 24t25.5 57q8 63 8 129t-8 129q-4 33 -25.5 57t-56.5 24h-80q-10 0 -10 -10v-120q0 -10 10 -10h80q8 0 14 -6t6 -14v-100q0 -8 -6 -14t-14 -6h-80q-10 0 -10 -10v-120z" />
    <glyph glyph-name="Ntilde" unicode="&#xd1;" 
d="M500 20q0 -8 -6 -14t-14 -6h-118q-13 0 -19 5.5t-8 11.5l-136 351q-2 5 -5.5 4t-3.5 -6v-346q0 -8 -6 -14t-14 -6h-100q-8 0 -14 6t-6 14v660q0 8 6 14t14 6h119q11 0 17 -5.5t8 -12.5l137 -380q2 -5 5.5 -4t3.5 6v376q0 8 6 14t14 6h100q8 0 14 -6t6 -14v-660zM367 864
q19 0 29.5 6.5t16.5 14.5t15.5 4t9.5 -18v-60q0 -20 -20.5 -35.5t-50.5 -15.5q-24 0 -45.5 4t-43 8.5t-44 8.5t-47.5 4q-17 0 -27.5 -5.5t-18.5 -15.5q-6 -7 -15.5 -3.5t-9.5 17.5v60q0 20 20.5 35.5t50.5 15.5q24 0 45.5 -4t43 -8.5t43.5 -8.5t48 -4z" />
    <glyph glyph-name="Ograve" unicode="&#xd2;" 
d="M275 570q-46 0 -69.5 -23.5t-27.5 -56.5q-4 -32 -6 -67.5t-2 -72.5t2 -73t6 -67q4 -33 27.5 -56.5t69.5 -23.5t69.5 23.5t27.5 56.5q4 31 5.5 67t1.5 73t-1.5 72.5t-5.5 67.5q-4 33 -27.5 56.5t-69.5 23.5zM275 711q52 0 93.5 -17.5t72 -48t49 -70.5t23.5 -85
q4 -32 5.5 -67.5t1.5 -72.5t-1.5 -73t-5.5 -67q-5 -45 -23.5 -85t-49 -70.5t-72 -48t-93.5 -17.5t-93.5 17.5t-72 48t-49 70.5t-23.5 85q-4 31 -6 67t-2 73t2 72.5t6 67.5q5 45 23.5 85t49 70.5t72 48t93.5 17.5zM220 910q11 0 16.5 -5.5t9.5 -10.5l82 -114q9 -12 3 -21
t-16 -9h-69q-14 0 -19.5 3.5t-10.5 8.5l-115 121q-8 9 -5 18t17 9h107z" />
    <glyph glyph-name="Oacute" unicode="&#xd3;" 
d="M275 570q-46 0 -69.5 -23.5t-27.5 -56.5q-4 -32 -6 -67.5t-2 -72.5t2 -73t6 -67q4 -33 27.5 -56.5t69.5 -23.5t69.5 23.5t27.5 56.5q4 31 5.5 67t1.5 73t-1.5 72.5t-5.5 67.5q-4 33 -27.5 56.5t-69.5 23.5zM275 711q52 0 93.5 -17.5t72 -48t49 -70.5t23.5 -85
q4 -32 5.5 -67.5t1.5 -72.5t-1.5 -73t-5.5 -67q-5 -45 -23.5 -85t-49 -70.5t-72 -48t-93.5 -17.5t-93.5 17.5t-72 48t-49 70.5t-23.5 85q-4 31 -6 67t-2 73t2 72.5t6 67.5q5 45 23.5 85t49 70.5t72 48t93.5 17.5zM427 910q14 0 17 -9t-5 -18l-115 -121q-5 -5 -10.5 -8.5
t-19.5 -3.5h-69q-10 0 -16 9t3 21l82 114q4 5 9.5 10.5t16.5 5.5h107z" />
    <glyph glyph-name="Ocircumflex" unicode="&#xd4;" 
d="M275 570q-46 0 -69.5 -23.5t-27.5 -56.5q-4 -32 -6 -67.5t-2 -72.5t2 -73t6 -67q4 -33 27.5 -56.5t69.5 -23.5t69.5 23.5t27.5 56.5q4 31 5.5 67t1.5 73t-1.5 72.5t-5.5 67.5q-4 33 -27.5 56.5t-69.5 23.5zM275 711q52 0 93.5 -17.5t72 -48t49 -70.5t23.5 -85
q4 -32 5.5 -67.5t1.5 -72.5t-1.5 -73t-5.5 -67q-5 -45 -23.5 -85t-49 -70.5t-72 -48t-93.5 -17.5t-93.5 17.5t-72 48t-49 70.5t-23.5 85q-4 31 -6 67t-2 73t2 72.5t6 67.5q5 45 23.5 85t49 70.5t72 48t93.5 17.5zM235 766q-4 -5 -12 -10.5t-19 -5.5h-95q-13 0 -14.5 10
t3.5 15l119 123q5 5 10.5 8.5t19.5 3.5h62q13 0 18.5 -3.5t10.5 -8.5l119 -123q5 -5 3 -15t-16 -10h-94q-11 0 -19 5.5t-12 10.5l-35 44q-7 10 -14 0z" />
    <glyph glyph-name="Otilde" unicode="&#xd5;" 
d="M275 570q-46 0 -69.5 -23.5t-27.5 -56.5q-4 -32 -6 -67.5t-2 -72.5t2 -73t6 -67q4 -33 27.5 -56.5t69.5 -23.5t69.5 23.5t27.5 56.5q4 31 5.5 67t1.5 73t-1.5 72.5t-5.5 67.5q-4 33 -27.5 56.5t-69.5 23.5zM275 711q52 0 93.5 -17.5t72 -48t49 -70.5t23.5 -85
q4 -32 5.5 -67.5t1.5 -72.5t-1.5 -73t-5.5 -67q-5 -45 -23.5 -85t-49 -70.5t-72 -48t-93.5 -17.5t-93.5 17.5t-72 48t-49 70.5t-23.5 85q-4 31 -6 67t-2 73t2 72.5t6 67.5q5 45 23.5 85t49 70.5t72 48t93.5 17.5zM367 864q19 0 29.5 6.5t16.5 14.5t15.5 4t9.5 -18v-60
q0 -20 -20.5 -35.5t-50.5 -15.5q-24 0 -45.5 4t-43 8.5t-44 8.5t-47.5 4q-17 0 -27.5 -5.5t-18.5 -15.5q-6 -7 -15.5 -3.5t-9.5 17.5v60q0 20 20.5 35.5t50.5 15.5q24 0 45.5 -4t43 -8.5t43.5 -8.5t48 -4z" />
    <glyph glyph-name="Odieresis" unicode="&#xd6;" 
d="M275 570q-46 0 -69.5 -23.5t-27.5 -56.5q-4 -32 -6 -67.5t-2 -72.5t2 -73t6 -67q4 -33 27.5 -56.5t69.5 -23.5t69.5 23.5t27.5 56.5q4 31 5.5 67t1.5 73t-1.5 72.5t-5.5 67.5q-4 33 -27.5 56.5t-69.5 23.5zM275 711q52 0 93.5 -17.5t72 -48t49 -70.5t23.5 -85
q4 -32 5.5 -67.5t1.5 -72.5t-1.5 -73t-5.5 -67q-5 -45 -23.5 -85t-49 -70.5t-72 -48t-93.5 -17.5t-93.5 17.5t-72 48t-49 70.5t-23.5 85q-4 31 -6 67t-2 73t2 72.5t6 67.5q5 45 23.5 85t49 70.5t72 48t93.5 17.5zM240 780q0 -8 -6 -14t-14 -6h-90q-8 0 -14 6t-6 14v90
q0 8 6 14t14 6h90q8 0 14 -6t6 -14v-90zM440 780q0 -8 -6 -14t-14 -6h-90q-8 0 -14 6t-6 14v90q0 8 6 14t14 6h90q8 0 14 -6t6 -14v-90z" />
    <glyph glyph-name="multiply" unicode="&#xd7;" 
d="M176 243q7 7 0 14l-88 88q-6 6 -6 14.5t6 14.5l63 63q5 5 14 5.5t14 -5.5l88 -89q7 -7 14 0l89 89q6 6 14.5 6t14.5 -6l63 -63q5 -5 5 -13.5t-5 -14.5l-89 -89q-9 -7 0 -14l89 -89q5 -6 5 -14.5t-5 -13.5l-63 -63q-6 -6 -14.5 -6t-14.5 6l-89 89q-7 7 -14 0l-88 -89
q-5 -6 -14 -5.5t-14 5.5l-63 63q-6 6 -6 14.5t6 14.5z" />
    <glyph glyph-name="Oslash" unicode="&#xd8;" 
d="M129 15q-9 -15 -21 -15h-64q-10 0 -16 8.5t0 19.5l41 68q5 7 3.5 10l-2.5 5q-25 44 -31 99q-4 31 -6 67t-2 73t2 72.5t6 67.5q5 45 23.5 85t49 70.5t72 48t93.5 17.5q37 0 69 -9t58 -26q3 -2 6.5 -3.5t8.5 5.5l5 7q5 8 8.5 11.5t10.5 3.5h64q10 0 16 -9t0 -19l-40 -66
q-5 -8 -3 -11t3 -5q13 -23 20.5 -48t11.5 -52q4 -32 5.5 -67.5t1.5 -72.5t-1.5 -73t-5.5 -67q-5 -45 -23.5 -85t-49 -70.5t-72 -48t-93.5 -17.5q-78 0 -133 37q-2 1 -4.5 2t-5.5 -4zM277 130q46 0 69.5 23.5t27.5 56.5q5 47 6.5 101.5t-0.5 106.5q0 4 -2 6t-5 -3l-160 -265
q-2 -4 -1 -6t3 -3q25 -17 62 -17zM277 570q-46 0 -69.5 -23.5t-27.5 -56.5q-6 -47 -7.5 -101.5t0.5 -106.5q0 -3 2 -4.5t5 3.5l157 260q4 7 2.5 9.5t-3.5 3.5q-24 16 -59 16z" />
    <glyph glyph-name="Ugrave" unicode="&#xd9;" 
d="M178 210q0 -33 25 -56.5t70 -23.5q46 0 71.5 23.5t25.5 56.5v470q0 8 6 14t14 6h101q8 0 14 -6t6 -14v-470q0 -45 -18 -85.5t-49.5 -70.5t-75 -47.5t-95.5 -17.5q-51 0 -94.5 17.5t-75 47.5t-49 70.5t-17.5 85.5v470q0 8 6 14t14 6h101q8 0 14 -6t6 -14v-470zM220 910
q11 0 16.5 -5.5t9.5 -10.5l82 -114q9 -12 3 -21t-16 -9h-69q-14 0 -19.5 3.5t-10.5 8.5l-115 121q-8 9 -5 18t17 9h107z" />
    <glyph glyph-name="Uacute" unicode="&#xda;" 
d="M178 210q0 -33 25 -56.5t70 -23.5q46 0 71.5 23.5t25.5 56.5v470q0 8 6 14t14 6h101q8 0 14 -6t6 -14v-470q0 -45 -18 -85.5t-49.5 -70.5t-75 -47.5t-95.5 -17.5q-51 0 -94.5 17.5t-75 47.5t-49 70.5t-17.5 85.5v470q0 8 6 14t14 6h101q8 0 14 -6t6 -14v-470zM427 910
q14 0 17 -9t-5 -18l-115 -121q-5 -5 -10.5 -8.5t-19.5 -3.5h-69q-10 0 -16 9t3 21l82 114q4 5 9.5 10.5t16.5 5.5h107z" />
    <glyph glyph-name="Ucircumflex" unicode="&#xdb;" 
d="M178 210q0 -33 25 -56.5t70 -23.5q46 0 71.5 23.5t25.5 56.5v470q0 8 6 14t14 6h101q8 0 14 -6t6 -14v-470q0 -45 -18 -85.5t-49.5 -70.5t-75 -47.5t-95.5 -17.5q-51 0 -94.5 17.5t-75 47.5t-49 70.5t-17.5 85.5v470q0 8 6 14t14 6h101q8 0 14 -6t6 -14v-470zM235 766
q-4 -5 -12 -10.5t-19 -5.5h-95q-13 0 -14.5 10t3.5 15l119 123q5 5 10.5 8.5t19.5 3.5h62q13 0 18.5 -3.5t10.5 -8.5l119 -123q5 -5 3 -15t-16 -10h-94q-11 0 -19 5.5t-12 10.5l-35 44q-7 10 -14 0z" />
    <glyph glyph-name="Udieresis" unicode="&#xdc;" 
d="M178 210q0 -33 25 -56.5t70 -23.5q46 0 71.5 23.5t25.5 56.5v470q0 8 6 14t14 6h101q8 0 14 -6t6 -14v-470q0 -45 -18 -85.5t-49.5 -70.5t-75 -47.5t-95.5 -17.5q-51 0 -94.5 17.5t-75 47.5t-49 70.5t-17.5 85.5v470q0 8 6 14t14 6h101q8 0 14 -6t6 -14v-470zM240 780
q0 -8 -6 -14t-14 -6h-90q-8 0 -14 6t-6 14v90q0 8 6 14t14 6h90q8 0 14 -6t6 -14v-90zM440 780q0 -8 -6 -14t-14 -6h-90q-8 0 -14 6t-6 14v90q0 8 6 14t14 6h90q8 0 14 -6t6 -14v-90z" />
    <glyph glyph-name="Yacute" unicode="&#xdd;" 
d="M377 685q5 15 19 15h110q10 0 15.5 -8.5t0.5 -19.5l-177 -446v-206q0 -8 -6 -14t-14 -6h-100q-8 0 -14 6t-6 14v206l-177 446q-5 11 0.5 19.5t15.5 8.5h110q14 0 19 -15l96 -277q1 -4 5 -4h2q4 0 5 4zM427 910q14 0 17 -9t-5 -18l-115 -121q-5 -5 -10.5 -8.5t-19.5 -3.5
h-69q-10 0 -16 9t3 21l82 114q4 5 9.5 10.5t16.5 5.5h107z" />
    <glyph glyph-name="Thorn" unicode="&#xde;" 
d="M350 380q0 29 -20.5 49.5t-49.5 20.5h-70q-10 0 -10 -10v-170q0 -10 10 -10h70q29 0 49.5 20.5t20.5 49.5v50zM490 330q0 -44 -16.5 -82t-45 -66.5t-67 -45t-81.5 -16.5h-70q-10 0 -10 -10v-90q0 -8 -6 -14t-14 -6h-100q-8 0 -14 6t-6 14v660q0 8 6 14t14 6h100
q8 0 14 -6t6 -14v-80q0 -10 10 -10h70q43 0 81.5 -16.5t67 -45t45 -67t16.5 -81.5v-50z" />
    <glyph glyph-name="germandbls" unicode="&#xdf;" 
d="M56 501q0 44 17 82t46 66t68 44t83 16t83 -16t68 -44t45.5 -66t16.5 -82q0 -38 -15 -70t-36 -58q-5 -6 -5 -11t6 -11q26 -27 43 -62.5t17 -80.5q0 -48 -17.5 -86.5t-48 -65.5t-71 -41.5t-86.5 -14.5h-16q-8 0 -14 6t-6 14v91q0 8 6 14t14 6h16q39 0 65.5 19t26.5 58
q0 43 -26.5 64t-65.5 21h-12q-8 0 -14 6t-6 14v89q0 8 6 14t14 6h12q35 0 59 22t24 57q0 34 -22.5 55.5t-60.5 21.5t-60.5 -20.5t-22.5 -56.5v-481q0 -8 -6 -14t-14 -6h-91q-8 0 -14 6t-6 14v481z" />
    <glyph glyph-name="agrave" unicode="&#xe0;" 
d="M242 204q-16 0 -26 -5.5t-15.5 -13.5t-7.5 -16.5t-2 -14.5q0 -28 19.5 -40.5t46.5 -12.5q43 0 72 15t29 54v24q0 10 -10 10h-106zM276 397q-8 0 -19.5 -1.5t-22.5 -5.5t-19 -11.5t-8 -19.5q0 -13 -6.5 -16t-20.5 -3h-72q-8 0 -14 6t-6 14q0 30 13.5 57t38 48t60.5 33.5
t81 12.5q91 0 145.5 -46.5t54.5 -134.5v-310q0 -8 -6 -14t-14 -6h-50q-8 0 -14 7q-5 6 -7.5 13t-12.5 7q-7 0 -16 -6t-23 -13t-33.5 -13t-47.5 -6q-88 0 -138 43t-50 122q0 26 10.5 53.5t32 50.5t54 37.5t75.5 14.5h102q10 0 10 10v16q0 31 -22 46t-55 15zM260 730
q11 0 16.5 -5.5t9.5 -10.5l82 -114q9 -12 3 -21t-16 -9h-69q-14 0 -19.5 3.5t-10.5 8.5l-115 121q-8 9 -5 18t17 9h107z" />
    <glyph glyph-name="aacute" unicode="&#xe1;" 
d="M242 204q-16 0 -26 -5.5t-15.5 -13.5t-7.5 -16.5t-2 -14.5q0 -28 19.5 -40.5t46.5 -12.5q43 0 72 15t29 54v24q0 10 -10 10h-106zM276 397q-8 0 -19.5 -1.5t-22.5 -5.5t-19 -11.5t-8 -19.5q0 -13 -6.5 -16t-20.5 -3h-72q-8 0 -14 6t-6 14q0 30 13.5 57t38 48t60.5 33.5
t81 12.5q91 0 145.5 -46.5t54.5 -134.5v-310q0 -8 -6 -14t-14 -6h-50q-8 0 -14 7q-5 6 -7.5 13t-12.5 7q-7 0 -16 -6t-23 -13t-33.5 -13t-47.5 -6q-88 0 -138 43t-50 122q0 26 10.5 53.5t32 50.5t54 37.5t75.5 14.5h102q10 0 10 10v16q0 31 -22 46t-55 15zM427 730
q14 0 17 -9t-5 -18l-115 -121q-5 -5 -10.5 -8.5t-19.5 -3.5h-69q-10 0 -16 9t3 21l82 114q4 5 9.5 10.5t16.5 5.5h107z" />
    <glyph glyph-name="acircumflex" unicode="&#xe2;" 
d="M242 204q-16 0 -26 -5.5t-15.5 -13.5t-7.5 -16.5t-2 -14.5q0 -28 19.5 -40.5t46.5 -12.5q43 0 72 15t29 54v24q0 10 -10 10h-106zM276 397q-8 0 -19.5 -1.5t-22.5 -5.5t-19 -11.5t-8 -19.5q0 -13 -6.5 -16t-20.5 -3h-72q-8 0 -14 6t-6 14q0 30 13.5 57t38 48t60.5 33.5
t81 12.5q91 0 145.5 -46.5t54.5 -134.5v-310q0 -8 -6 -14t-14 -6h-50q-8 0 -14 7q-5 6 -7.5 13t-12.5 7q-7 0 -16 -6t-23 -13t-33.5 -13t-47.5 -6q-88 0 -138 43t-50 122q0 26 10.5 53.5t32 50.5t54 37.5t75.5 14.5h102q10 0 10 10v16q0 31 -22 46t-55 15zM242 586
q-4 -5 -12 -10.5t-19 -5.5h-95q-13 0 -14.5 10t3.5 15l119 123q5 5 10.5 8.5t19.5 3.5h62q13 0 18.5 -3.5t10.5 -8.5l119 -123q5 -5 3 -15t-16 -10h-94q-11 0 -19 5.5t-12 10.5l-35 44q-7 10 -14 0z" />
    <glyph glyph-name="atilde" unicode="&#xe3;" 
d="M242 204q-16 0 -26 -5.5t-15.5 -13.5t-7.5 -16.5t-2 -14.5q0 -28 19.5 -40.5t46.5 -12.5q43 0 72 15t29 54v24q0 10 -10 10h-106zM276 397q-8 0 -19.5 -1.5t-22.5 -5.5t-19 -11.5t-8 -19.5q0 -13 -6.5 -16t-20.5 -3h-72q-8 0 -14 6t-6 14q0 30 13.5 57t38 48t60.5 33.5
t81 12.5q91 0 145.5 -46.5t54.5 -134.5v-310q0 -8 -6 -14t-14 -6h-50q-8 0 -14 7q-5 6 -7.5 13t-12.5 7q-7 0 -16 -6t-23 -13t-33.5 -13t-47.5 -6q-88 0 -138 43t-50 122q0 26 10.5 53.5t32 50.5t54 37.5t75.5 14.5h102q10 0 10 10v16q0 31 -22 46t-55 15zM375 684
q19 0 29.5 6.5t16.5 14.5t15.5 4t9.5 -18v-60q0 -20 -20.5 -35.5t-50.5 -15.5q-24 0 -45.5 4t-43 8.5t-44 8.5t-47.5 4q-17 0 -27.5 -5.5t-18.5 -15.5q-6 -7 -15.5 -3.5t-9.5 17.5v60q0 20 20.5 35.5t50.5 15.5q24 0 45.5 -4t43 -8.5t43.5 -8.5t48 -4z" />
    <glyph glyph-name="adieresis" unicode="&#xe4;" 
d="M242 204q-16 0 -26 -5.5t-15.5 -13.5t-7.5 -16.5t-2 -14.5q0 -28 19.5 -40.5t46.5 -12.5q43 0 72 15t29 54v24q0 10 -10 10h-106zM276 397q-8 0 -19.5 -1.5t-22.5 -5.5t-19 -11.5t-8 -19.5q0 -13 -6.5 -16t-20.5 -3h-72q-8 0 -14 6t-6 14q0 30 13.5 57t38 48t60.5 33.5
t81 12.5q91 0 145.5 -46.5t54.5 -134.5v-310q0 -8 -6 -14t-14 -6h-50q-8 0 -14 7q-5 6 -7.5 13t-12.5 7q-7 0 -16 -6t-23 -13t-33.5 -13t-47.5 -6q-88 0 -138 43t-50 122q0 26 10.5 53.5t32 50.5t54 37.5t75.5 14.5h102q10 0 10 10v16q0 31 -22 46t-55 15zM250 600
q0 -8 -6 -14t-14 -6h-90q-8 0 -14 6t-6 14v90q0 8 6 14t14 6h90q8 0 14 -6t6 -14v-90zM450 600q0 -8 -6 -14t-14 -6h-90q-8 0 -14 6t-6 14v90q0 8 6 14t14 6h90q8 0 14 -6t6 -14v-90z" />
    <glyph glyph-name="aring" unicode="&#xe5;" 
d="M242 204q-16 0 -26 -5.5t-15.5 -13.5t-7.5 -16.5t-2 -14.5q0 -28 19.5 -40.5t46.5 -12.5q43 0 72 15t29 54v24q0 10 -10 10h-106zM276 397q-8 0 -19.5 -1.5t-22.5 -5.5t-19 -11.5t-8 -19.5q0 -13 -6.5 -16t-20.5 -3h-72q-8 0 -14 6t-6 14q0 30 13.5 57t38 48t60.5 33.5
t81 12.5q91 0 145.5 -46.5t54.5 -134.5v-310q0 -8 -6 -14t-14 -6h-50q-8 0 -14 7q-5 6 -7.5 13t-12.5 7q-7 0 -16 -6t-23 -13t-33.5 -13t-47.5 -6q-88 0 -138 43t-50 122q0 26 10.5 53.5t32 50.5t54 37.5t75.5 14.5h102q10 0 10 10v16q0 31 -22 46t-55 15zM169 670
q0 24 9 45t25 36.5t37 24.5t45 9t45 -9t36.5 -24.5t24.5 -36.5t9 -45t-9 -45t-24.5 -37t-36.5 -25t-45 -9t-45 9t-37 25t-25 37t-9 45zM253 670q0 -14 9 -23t23 -9t23 9t9 23t-9 23t-23 9t-23 -9t-9 -23z" />
    <glyph glyph-name="ae" unicode="&#xe6;" 
d="M294 24q-20 17 -38 0q-20 -17 -46.5 -26t-55.5 -9q-32 0 -60 12t-48 33.5t-31.5 52t-11.5 67.5q0 26 10.5 53.5t30.5 50.5t49.5 37.5t68.5 14.5h36q10 0 10 10v16q-1 31 -14.5 46t-33.5 15q-13 0 -23.5 -9t-14.5 -29q-3 -13 -8 -16t-19 -3h-62q-8 0 -14 6t-6 14
q0 27 9.5 54t28 48.5t46.5 35t65 13.5q32 0 54 -9.5t45 -28.5q6 -5 14 -6t16 6q19 16 43 27t53 11q81 0 120.5 -67t39.5 -184v-30q-1 -8 -6.5 -14t-13.5 -6h-183q-15 0 -15 -15q0 -42 16 -65.5t45 -23.5q42 0 52 46q2 10 9 13.5t14 3.5h63q17 0 17 -20q0 -26 -10 -54
t-29 -51.5t-46.5 -39t-62.5 -15.5q-37 0 -64 12t-39 23zM157 204q-11 0 -19 -5.5t-13 -13t-7.5 -16t-2.5 -15.5q0 -28 13.5 -40t33.5 -12q26 0 38.5 20t12.5 58v14q0 10 -10 10h-46zM324 319q0 -9 10 -9h101q10 0 10 9q0 36 -16 55t-42 19q-32 0 -47.5 -22.5t-15.5 -51.5z
" />
    <glyph glyph-name="ccedilla" unicode="&#xe7;" 
d="M279 119q33 0 53 14.5t26 55.5q3 16 19 16h89q8 0 12.5 -6t4.5 -14q0 -46 -16.5 -82t-44.5 -61.5t-65 -39t-78 -13.5q-46 0 -82.5 14.5t-63 39.5t-42 59t-20.5 73q-2 15 -3 34.5t-1 40.5t1 40.5t3 34.5q5 39 20.5 73t42 59t63 39.5t82.5 14.5q41 0 78 -13t65 -38.5
t44.5 -62t16.5 -82.5q0 -8 -4.5 -14t-12.5 -6h-89q-7 0 -12.5 4t-6.5 12q-2 37 -23.5 53.5t-56.5 16.5q-38 0 -55.5 -13.5t-21.5 -42.5q-2 -15 -3 -34.5t-1 -40.5t1 -40.5t3 -34.5q3 -26 21.5 -41t56.5 -15zM327 -176q-6 -24 -32 -24h-62q-24 0 -29 14t-1 25l29 92
q7 24 32 24h54q24 0 28.5 -13.5t1.5 -25.5z" />
    <glyph glyph-name="egrave" unicode="&#xe8;" 
d="M190 195q0 -42 26 -63.5t62 -21.5q29 0 49 9t30 33q7 17 23 17h83q8 0 14 -5t3 -17q-17 -70 -67.5 -114t-134.5 -44q-46 0 -82 14.5t-62.5 39.5t-42 59t-20.5 73q-2 15 -3 34.5t-1 40.5t1 40.5t3 34.5q5 39 20.5 73t42 59t62.5 39.5t82 14.5q45 0 82.5 -13t64.5 -38.5
t42 -62t15 -84.5v-83q0 -8 -6 -14t-14 -6h-257q-15 0 -15 -15zM191 330q0 -9 10 -9h152q10 0 10 9q0 16 -7 28t-19 19.5t-27.5 11.5t-31.5 4q-43 0 -65 -17t-22 -46zM250 730q11 0 16.5 -5.5t9.5 -10.5l82 -114q9 -12 3 -21t-16 -9h-69q-14 0 -19.5 3.5t-10.5 8.5l-115 121
q-8 9 -5 18t17 9h107z" />
    <glyph glyph-name="eacute" unicode="&#xe9;" 
d="M190 195q0 -42 26 -63.5t62 -21.5q29 0 49 9t30 33q7 17 23 17h83q8 0 14 -5t3 -17q-17 -70 -67.5 -114t-134.5 -44q-46 0 -82 14.5t-62.5 39.5t-42 59t-20.5 73q-2 15 -3 34.5t-1 40.5t1 40.5t3 34.5q5 39 20.5 73t42 59t62.5 39.5t82 14.5q45 0 82.5 -13t64.5 -38.5
t42 -62t15 -84.5v-83q0 -8 -6 -14t-14 -6h-257q-15 0 -15 -15zM191 330q0 -9 10 -9h152q10 0 10 9q0 16 -7 28t-19 19.5t-27.5 11.5t-31.5 4q-43 0 -65 -17t-22 -46zM417 730q14 0 17 -9t-5 -18l-115 -121q-5 -5 -10.5 -8.5t-19.5 -3.5h-69q-10 0 -16 9t3 21l82 114
q4 5 9.5 10.5t16.5 5.5h107z" />
    <glyph glyph-name="ecircumflex" unicode="&#xea;" 
d="M190 195q0 -42 26 -63.5t62 -21.5q29 0 49 9t30 33q7 17 23 17h83q8 0 14 -5t3 -17q-17 -70 -67.5 -114t-134.5 -44q-46 0 -82 14.5t-62.5 39.5t-42 59t-20.5 73q-2 15 -3 34.5t-1 40.5t1 40.5t3 34.5q5 39 20.5 73t42 59t62.5 39.5t82 14.5q45 0 82.5 -13t64.5 -38.5
t42 -62t15 -84.5v-83q0 -8 -6 -14t-14 -6h-257q-15 0 -15 -15zM191 330q0 -9 10 -9h152q10 0 10 9q0 16 -7 28t-19 19.5t-27.5 11.5t-31.5 4q-43 0 -65 -17t-22 -46zM242 586q-4 -5 -12 -10.5t-19 -5.5h-95q-13 0 -14.5 10t3.5 15l119 123q5 5 10.5 8.5t19.5 3.5h62
q13 0 18.5 -3.5t10.5 -8.5l119 -123q5 -5 3 -15t-16 -10h-94q-11 0 -19 5.5t-12 10.5l-35 44q-7 10 -14 0z" />
    <glyph glyph-name="edieresis" unicode="&#xeb;" 
d="M190 195q0 -42 26 -63.5t62 -21.5q29 0 49 9t30 33q7 17 23 17h83q8 0 14 -5t3 -17q-17 -70 -67.5 -114t-134.5 -44q-46 0 -82 14.5t-62.5 39.5t-42 59t-20.5 73q-2 15 -3 34.5t-1 40.5t1 40.5t3 34.5q5 39 20.5 73t42 59t62.5 39.5t82 14.5q45 0 82.5 -13t64.5 -38.5
t42 -62t15 -84.5v-83q0 -8 -6 -14t-14 -6h-257q-15 0 -15 -15zM191 330q0 -9 10 -9h152q10 0 10 9q0 16 -7 28t-19 19.5t-27.5 11.5t-31.5 4q-43 0 -65 -17t-22 -46zM250 600q0 -8 -6 -14t-14 -6h-90q-8 0 -14 6t-6 14v90q0 8 6 14t14 6h90q8 0 14 -6t6 -14v-90zM450 600
q0 -8 -6 -14t-14 -6h-90q-8 0 -14 6t-6 14v90q0 8 6 14t14 6h90q8 0 14 -6t6 -14v-90z" />
    <glyph glyph-name="igrave" unicode="&#xec;" 
d="M260 730q11 0 16.5 -5.5t9.5 -10.5l82 -114q9 -12 3 -21t-16 -9h-69q-14 0 -19.5 3.5t-10.5 8.5l-115 121q-8 9 -5 18t17 9h107zM120 373q-8 0 -14 6t-6 14v87q0 8 6 14t14 6h224q7 0 11.5 -5t4.5 -11v-344q0 -10 10 -10h110q8 0 14 -6t6 -14v-90q0 -8 -6 -14t-14 -6
h-370q-8 0 -14 6t-6 14v90q0 8 6 14t14 6h110q10 0 10 10v223q0 10 -10 10h-100z" />
    <glyph glyph-name="iacute" unicode="&#xed;" 
d="M427 730q14 0 17 -9t-5 -18l-115 -121q-5 -5 -10.5 -8.5t-19.5 -3.5h-69q-10 0 -16 9t3 21l82 114q4 5 9.5 10.5t16.5 5.5h107zM120 373q-8 0 -14 6t-6 14v87q0 8 6 14t14 6h224q7 0 11.5 -5t4.5 -11v-344q0 -10 10 -10h110q8 0 14 -6t6 -14v-90q0 -8 -6 -14t-14 -6h-370
q-8 0 -14 6t-6 14v90q0 8 6 14t14 6h110q10 0 10 10v223q0 10 -10 10h-100z" />
    <glyph glyph-name="icircumflex" unicode="&#xee;" 
d="M120 373q-8 0 -14 6t-6 14v87q0 8 6 14t14 6h224q7 0 11.5 -5t4.5 -11v-344q0 -10 10 -10h110q8 0 14 -6t6 -14v-90q0 -8 -6 -14t-14 -6h-370q-8 0 -14 6t-6 14v90q0 8 6 14t14 6h110q10 0 10 10v223q0 10 -10 10h-100zM232 586q-4 -5 -12 -10.5t-19 -5.5h-95
q-13 0 -14.5 10t3.5 15l119 123q5 5 10.5 8.5t19.5 3.5h62q13 0 18.5 -3.5t10.5 -8.5l119 -123q5 -5 3 -15t-16 -10h-94q-11 0 -19 5.5t-12 10.5l-35 44q-7 10 -14 0z" />
    <glyph glyph-name="idieresis" unicode="&#xef;" 
d="M240 600q0 -8 -6 -14t-14 -6h-90q-8 0 -14 6t-6 14v90q0 8 6 14t14 6h90q8 0 14 -6t6 -14v-90zM440 600q0 -8 -6 -14t-14 -6h-90q-8 0 -14 6t-6 14v90q0 8 6 14t14 6h90q8 0 14 -6t6 -14v-90zM120 373q-8 0 -14 6t-6 14v87q0 8 6 14t14 6h224q7 0 11.5 -5t4.5 -11v-344
q0 -10 10 -10h110q8 0 14 -6t6 -14v-90q0 -8 -6 -14t-14 -6h-370q-8 0 -14 6t-6 14v90q0 8 6 14t14 6h110q10 0 10 10v223q0 10 -10 10h-100z" />
    <glyph glyph-name="eth" unicode="&#xf0;" 
d="M275 120q39 0 62.5 23.5t26.5 62.5q2 26 -2 49.5t-15 41t-29 28t-43 10.5q-39 0 -62.5 -25.5t-26.5 -64.5q-4 -55 17 -90t72 -35zM215 570h-42q-8 0 -14 6t-6 14v90q0 8 6 14t14 6h66q73 0 125 -37q5 -2 9 1l72 41q8 5 16.5 0.5t8.5 -14.5v-61q0 -10 -3 -14.5t-10 -9.5
l-15 -10q-8 -6 -5 -10q18 -28 31 -71.5t20.5 -95t9 -106.5t-4.5 -107q-5 -45 -20 -84.5t-41 -69t-65 -46.5t-92 -17t-94 17t-70 46.5t-44 69.5t-15 86q0 52 14 98t42 80.5t69.5 54t97.5 19.5q9 0 22.5 -2.5t23.5 -7.5q8 -5 15.5 -1.5t7.5 14.5q0 9 -2.5 21t-6 21.5
t-8.5 15.5t-9 3l-67 -46q-8 -5 -18 -1t-10 15v40q0 8 2 14t13 14q7 5 4.5 7.5t-6.5 2.5h-21z" />
    <glyph glyph-name="ntilde" unicode="&#xf1;" 
d="M185 476q11 0 21 5.5t22.5 12t28 12t38.5 5.5q39 0 73 -14.5t59 -39.5t39 -59t14 -73v-305q0 -8 -6 -14t-14 -6h-90q-8 0 -14 6t-6 14v306q0 25 -19.5 42t-55.5 17q-35 0 -55 -16t-20 -39v-310q0 -8 -6 -14t-14 -6h-90q-8 0 -14 6t-6 14v460q0 8 6 14t14 6h50
q9 0 14 -3.5t9 -8.5q5 -5 9.5 -8.5t12.5 -3.5zM365 684q19 0 29.5 6.5t16.5 14.5t15.5 4t9.5 -18v-60q0 -20 -20.5 -35.5t-50.5 -15.5q-24 0 -45.5 4t-43 8.5t-44 8.5t-47.5 4q-17 0 -27.5 -5.5t-18.5 -15.5q-6 -7 -15.5 -3.5t-9.5 17.5v60q0 20 20.5 35.5t50.5 15.5
q24 0 45.5 -4t43 -8.5t43.5 -8.5t48 -4z" />
    <glyph glyph-name="ograve" unicode="&#xf2;" 
d="M274 511q46 0 82.5 -14.5t62.5 -39.5t42 -59t21 -73q2 -15 3 -34.5t1 -40.5t-1 -40.5t-3 -34.5q-5 -39 -20.5 -73t-42 -59t-62.5 -39.5t-82 -14.5t-82.5 14.5t-63 39.5t-42 59t-20.5 73q-2 15 -3 34.5t-1 40.5t1 40.5t3 34.5q5 39 20.5 73t42 59t62.5 39.5t82 14.5z
M274 119q38 0 56 15.5t22 40.5q2 15 3 34.5t1 40.5t-1 40.5t-3 34.5q-4 25 -22 40.5t-56 15.5t-55 -13.5t-22 -42.5q-2 -15 -3.5 -34.5t-1.5 -40.5t1.5 -40.5t3.5 -34.5q4 -26 21.5 -41t55.5 -15zM240 730q11 0 16.5 -5.5t9.5 -10.5l82 -114q9 -12 3 -21t-16 -9h-69
q-14 0 -19.5 3.5t-10.5 8.5l-115 121q-8 9 -5 18t17 9h107z" />
    <glyph glyph-name="oacute" unicode="&#xf3;" 
d="M274 511q46 0 82.5 -14.5t62.5 -39.5t42 -59t21 -73q2 -15 3 -34.5t1 -40.5t-1 -40.5t-3 -34.5q-5 -39 -20.5 -73t-42 -59t-62.5 -39.5t-82 -14.5t-82.5 14.5t-63 39.5t-42 59t-20.5 73q-2 15 -3 34.5t-1 40.5t1 40.5t3 34.5q5 39 20.5 73t42 59t62.5 39.5t82 14.5z
M274 119q38 0 56 15.5t22 40.5q2 15 3 34.5t1 40.5t-1 40.5t-3 34.5q-4 25 -22 40.5t-56 15.5t-55 -13.5t-22 -42.5q-2 -15 -3.5 -34.5t-1.5 -40.5t1.5 -40.5t3.5 -34.5q4 -26 21.5 -41t55.5 -15zM417 730q14 0 17 -9t-5 -18l-115 -121q-5 -5 -10.5 -8.5t-19.5 -3.5h-69
q-10 0 -16 9t3 21l82 114q4 5 9.5 10.5t16.5 5.5h107z" />
    <glyph glyph-name="ocircumflex" unicode="&#xf4;" 
d="M274 511q46 0 82.5 -14.5t62.5 -39.5t42 -59t21 -73q2 -15 3 -34.5t1 -40.5t-1 -40.5t-3 -34.5q-5 -39 -20.5 -73t-42 -59t-62.5 -39.5t-82 -14.5t-82.5 14.5t-63 39.5t-42 59t-20.5 73q-2 15 -3 34.5t-1 40.5t1 40.5t3 34.5q5 39 20.5 73t42 59t62.5 39.5t82 14.5z
M274 119q38 0 56 15.5t22 40.5q2 15 3 34.5t1 40.5t-1 40.5t-3 34.5q-4 25 -22 40.5t-56 15.5t-55 -13.5t-22 -42.5q-2 -15 -3.5 -34.5t-1.5 -40.5t1.5 -40.5t3.5 -34.5q4 -26 21.5 -41t55.5 -15zM232 586q-4 -5 -12 -10.5t-19 -5.5h-95q-13 0 -14.5 10t3.5 15l119 123
q5 5 10.5 8.5t19.5 3.5h62q13 0 18.5 -3.5t10.5 -8.5l119 -123q5 -5 3 -15t-16 -10h-94q-11 0 -19 5.5t-12 10.5l-35 44q-7 10 -14 0z" />
    <glyph glyph-name="otilde" unicode="&#xf5;" 
d="M274 511q46 0 82.5 -14.5t62.5 -39.5t42 -59t21 -73q2 -15 3 -34.5t1 -40.5t-1 -40.5t-3 -34.5q-5 -39 -20.5 -73t-42 -59t-62.5 -39.5t-82 -14.5t-82.5 14.5t-63 39.5t-42 59t-20.5 73q-2 15 -3 34.5t-1 40.5t1 40.5t3 34.5q5 39 20.5 73t42 59t62.5 39.5t82 14.5z
M274 119q38 0 56 15.5t22 40.5q2 15 3 34.5t1 40.5t-1 40.5t-3 34.5q-4 25 -22 40.5t-56 15.5t-55 -13.5t-22 -42.5q-2 -15 -3.5 -34.5t-1.5 -40.5t1.5 -40.5t3.5 -34.5q4 -26 21.5 -41t55.5 -15zM365 684q19 0 29.5 6.5t16.5 14.5t15.5 4t9.5 -18v-60q0 -20 -20.5 -35.5
t-50.5 -15.5q-24 0 -45.5 4t-43 8.5t-44 8.5t-47.5 4q-17 0 -27.5 -5.5t-18.5 -15.5q-6 -7 -15.5 -3.5t-9.5 17.5v60q0 20 20.5 35.5t50.5 15.5q24 0 45.5 -4t43 -8.5t43.5 -8.5t48 -4z" />
    <glyph glyph-name="odieresis" unicode="&#xf6;" 
d="M274 511q46 0 82.5 -14.5t62.5 -39.5t42 -59t21 -73q2 -15 3 -34.5t1 -40.5t-1 -40.5t-3 -34.5q-5 -39 -20.5 -73t-42 -59t-62.5 -39.5t-82 -14.5t-82.5 14.5t-63 39.5t-42 59t-20.5 73q-2 15 -3 34.5t-1 40.5t1 40.5t3 34.5q5 39 20.5 73t42 59t62.5 39.5t82 14.5z
M274 119q38 0 56 15.5t22 40.5q2 15 3 34.5t1 40.5t-1 40.5t-3 34.5q-4 25 -22 40.5t-56 15.5t-55 -13.5t-22 -42.5q-2 -15 -3.5 -34.5t-1.5 -40.5t1.5 -40.5t3.5 -34.5q4 -26 21.5 -41t55.5 -15zM240 600q0 -8 -6 -14t-14 -6h-90q-8 0 -14 6t-6 14v90q0 8 6 14t14 6h90
q8 0 14 -6t6 -14v-90zM440 600q0 -8 -6 -14t-14 -6h-90q-8 0 -14 6t-6 14v90q0 8 6 14t14 6h90q8 0 14 -6t6 -14v-90z" />
    <glyph glyph-name="divide" unicode="&#xf7;" 
d="M480 311q8 0 14 -6t6 -14v-79q0 -8 -6 -14t-14 -6h-410q-8 0 -14 6t-6 14v79q0 8 6 14t14 6h410zM346 20q0 -8 -6 -14t-14 -6h-103q-8 0 -14 6t-6 14v103q0 8 6 14t14 6h103q8 0 14 -6t6 -14v-103zM346 377q0 -8 -6 -14t-14 -6h-103q-8 0 -14 6t-6 14v103q0 8 6 14t14 6
h103q8 0 14 -6t6 -14v-103z" />
    <glyph glyph-name="oslash" unicode="&#xf8;" 
d="M459 413q-3 -4 -2.5 -5.5t1.5 -3.5q18 -36 24 -79q2 -15 3 -34.5t1 -40.5t-1 -40.5t-3 -34.5q-5 -39 -20.5 -73t-42 -59t-62.5 -39.5t-82 -14.5q-36 0 -65 8t-53 24q-2 2 -5 3t-7 -4l-6 -7q-10 -13 -24 -13h-66q-10 0 -14.5 9.5t3.5 18.5l48 59q5 6 4 9t-2 5
q-8 17 -13.5 35.5t-7.5 38.5q-2 15 -3 34.5t-1 40.5t1 40.5t3 34.5q5 39 20.5 73t42 59t62.5 39.5t82 14.5q35 0 64 -8.5t52 -22.5l4 -2t6 3l4 4q13 15 24 15h64q10 0 15.5 -9.5t-2.5 -18.5zM352 175q3 19 4 45.5t0 52.5q0 3 -1.5 5t-5.5 -3l-113 -140q-5 -5 -2.5 -7.5
t4.5 -3.5q17 -5 36 -5q38 0 56 15.5t22 40.5zM197 325q-3 -18 -4.5 -42.5t-0.5 -49.5q0 -3 2 -5.5t7 3.5l109 137q4 5 1.5 6.5t-4.5 2.5q-7 2 -15.5 3t-17.5 1q-38 0 -55 -13.5t-22 -42.5z" />
    <glyph glyph-name="ugrave" unicode="&#xf9;" 
d="M365 20q-11 0 -20.5 -5t-20.5 -10.5t-26.5 -10.5t-37.5 -5q-39 0 -74 14.5t-60.5 39.5t-40.5 59t-15 73v305q0 8 6 14t14 6h90q8 0 14 -6t6 -14v-306q0 -25 19.5 -42t55.5 -17q35 0 55 16t20 39v310q0 8 6 14t14 6h90q8 0 14 -6t6 -14v-460q0 -8 -6 -14t-14 -6h-50
q-9 0 -14 3t-9 7q-5 4 -9.5 7t-12.5 3zM240 730q11 0 16.5 -5.5t9.5 -10.5l82 -114q9 -12 3 -21t-16 -9h-69q-14 0 -19.5 3.5t-10.5 8.5l-115 121q-8 9 -5 18t17 9h107z" />
    <glyph glyph-name="uacute" unicode="&#xfa;" 
d="M365 20q-11 0 -20.5 -5t-20.5 -10.5t-26.5 -10.5t-37.5 -5q-39 0 -74 14.5t-60.5 39.5t-40.5 59t-15 73v305q0 8 6 14t14 6h90q8 0 14 -6t6 -14v-306q0 -25 19.5 -42t55.5 -17q35 0 55 16t20 39v310q0 8 6 14t14 6h90q8 0 14 -6t6 -14v-460q0 -8 -6 -14t-14 -6h-50
q-9 0 -14 3t-9 7q-5 4 -9.5 7t-12.5 3zM417 730q14 0 17 -9t-5 -18l-115 -121q-5 -5 -10.5 -8.5t-19.5 -3.5h-69q-10 0 -16 9t3 21l82 114q4 5 9.5 10.5t16.5 5.5h107z" />
    <glyph glyph-name="ucircumflex" unicode="&#xfb;" 
d="M365 20q-11 0 -20.5 -5t-20.5 -10.5t-26.5 -10.5t-37.5 -5q-39 0 -74 14.5t-60.5 39.5t-40.5 59t-15 73v305q0 8 6 14t14 6h90q8 0 14 -6t6 -14v-306q0 -25 19.5 -42t55.5 -17q35 0 55 16t20 39v310q0 8 6 14t14 6h90q8 0 14 -6t6 -14v-460q0 -8 -6 -14t-14 -6h-50
q-9 0 -14 3t-9 7q-5 4 -9.5 7t-12.5 3zM232 586q-4 -5 -12 -10.5t-19 -5.5h-95q-13 0 -14.5 10t3.5 15l119 123q5 5 10.5 8.5t19.5 3.5h62q13 0 18.5 -3.5t10.5 -8.5l119 -123q5 -5 3 -15t-16 -10h-94q-11 0 -19 5.5t-12 10.5l-35 44q-7 10 -14 0z" />
    <glyph glyph-name="udieresis" unicode="&#xfc;" 
d="M365 20q-11 0 -20.5 -5t-20.5 -10.5t-26.5 -10.5t-37.5 -5q-39 0 -74 14.5t-60.5 39.5t-40.5 59t-15 73v305q0 8 6 14t14 6h90q8 0 14 -6t6 -14v-306q0 -25 19.5 -42t55.5 -17q35 0 55 16t20 39v310q0 8 6 14t14 6h90q8 0 14 -6t6 -14v-460q0 -8 -6 -14t-14 -6h-50
q-9 0 -14 3t-9 7q-5 4 -9.5 7t-12.5 3zM240 600q0 -8 -6 -14t-14 -6h-90q-8 0 -14 6t-6 14v90q0 8 6 14t14 6h90q8 0 14 -6t6 -14v-90zM440 600q0 -8 -6 -14t-14 -6h-90q-8 0 -14 6t-6 14v90q0 8 6 14t14 6h90q8 0 14 -6t6 -14v-90z" />
    <glyph glyph-name="yacute" unicode="&#xfd;" 
d="M273 201q2 -6 6 -6t6 6l81 284q4 15 19 15h101q12 0 17 -7.5t2 -15.5l-235 -662q-5 -15 -19 -15h-92q-12 0 -17 7.5t-2 15.5l70 187q2 7 2.5 10.5t-2.5 11.5l-166 445q-3 8 2 15.5t17 7.5h103q14 0 19 -15zM417 730q14 0 17 -9t-5 -18l-115 -121q-5 -5 -10.5 -8.5
t-19.5 -3.5h-69q-10 0 -16 9t3 21l82 114q4 5 9.5 10.5t16.5 5.5h107z" />
    <glyph glyph-name="thorn" unicode="&#xfe;" 
d="M274 385q-37 0 -55.5 -17t-20.5 -43q-1 -15 -1.5 -34.5t-0.5 -40.5t0.5 -40.5t1.5 -34.5q2 -29 20.5 -44.5t55.5 -15.5q36 0 54.5 17.5t20.5 42.5q1 15 1.5 34.5t0.5 40.5t-0.5 40.5t-1.5 34.5q-2 25 -20.5 42.5t-54.5 17.5zM69 690q0 8 6 14t14 6h90q8 0 14 -6t6 -14
v-166q0 -17 9.5 -21.5t20.5 0.5t24 8.5t36 3.5q39 0 72.5 -15t58.5 -40.5t40.5 -60.5t18.5 -74q1 -15 1.5 -34.5t0.5 -40.5t-0.5 -40.5t-1.5 -34.5q-3 -39 -18.5 -74t-40.5 -60.5t-58.5 -40.5t-72.5 -15q-23 0 -36 3.5t-24 8.5t-20.5 0.5t-9.5 -21.5v-156q0 -8 -6 -14
t-14 -6h-90q-8 0 -14 6t-6 14v870z" />
    <glyph glyph-name="ydieresis" unicode="&#xff;" 
d="M273 201q2 -6 6 -6t6 6l81 284q4 15 19 15h101q12 0 17 -7.5t2 -15.5l-235 -662q-5 -15 -19 -15h-92q-12 0 -17 7.5t-2 15.5l70 187q2 7 2.5 10.5t-2.5 11.5l-166 445q-3 8 2 15.5t17 7.5h103q14 0 19 -15zM240 600q0 -8 -6 -14t-14 -6h-90q-8 0 -14 6t-6 14v90q0 8 6 14
t14 6h90q8 0 14 -6t6 -14v-90zM440 600q0 -8 -6 -14t-14 -6h-90q-8 0 -14 6t-6 14v90q0 8 6 14t14 6h90q8 0 14 -6t6 -14v-90z" />
    <glyph glyph-name="Amacron" unicode="&#x100;" 
d="M154 15q-3 -15 -19 -15h-105q-12 0 -17 6.5t-3 13.5l179 665q3 15 19 15h134q16 0 19 -15l178 -665q2 -7 -3 -13.5t-17 -6.5h-105q-14 0 -19 15l-31 103q-2 6 -5 10.5t-10 4.5h-152q-12 0 -15 -15zM220 284q-3 -11 8 -11h92q11 0 8 11l-48 240q-1 4 -5 4h-2q-4 0 -5 -4z
M144 760q-8 0 -14 6t-6 14v58q0 8 6 14t14 6h262q8 0 14 -6t6 -14v-58q0 -8 -6 -14t-14 -6h-262z" />
    <glyph glyph-name="amacron" unicode="&#x101;" 
d="M242 204q-16 0 -26 -5.5t-15.5 -13.5t-7.5 -16.5t-2 -14.5q0 -28 19.5 -40.5t46.5 -12.5q43 0 72 15t29 54v24q0 10 -10 10h-106zM276 397q-8 0 -19.5 -1.5t-22.5 -5.5t-19 -11.5t-8 -19.5q0 -13 -6.5 -16t-20.5 -3h-72q-8 0 -14 6t-6 14q0 30 13.5 57t38 48t60.5 33.5
t81 12.5q91 0 145.5 -46.5t54.5 -134.5v-310q0 -8 -6 -14t-14 -6h-50q-8 0 -14 7q-5 6 -7.5 13t-12.5 7q-7 0 -16 -6t-23 -13t-33.5 -13t-47.5 -6q-88 0 -138 43t-50 122q0 26 10.5 53.5t32 50.5t54 37.5t75.5 14.5h102q10 0 10 10v16q0 31 -22 46t-55 15zM154 596
q-8 0 -14 6t-6 14v58q0 8 6 14t14 6h262q8 0 14 -6t6 -14v-58q0 -8 -6 -14t-14 -6h-262z" />
    <glyph glyph-name="Abreve" unicode="&#x102;" 
d="M154 15q-3 -15 -19 -15h-105q-12 0 -17 6.5t-3 13.5l179 665q3 15 19 15h134q16 0 19 -15l178 -665q2 -7 -3 -13.5t-17 -6.5h-105q-14 0 -19 15l-31 103q-2 6 -5 10.5t-10 4.5h-152q-12 0 -15 -15zM220 284q-3 -11 8 -11h92q11 0 8 11l-48 240q-1 4 -5 4h-2q-4 0 -5 -4z
M335 886q0 7 4.5 12t12.5 5h63q7 0 12 -5t5 -12q0 -29 -11 -55.5t-31.5 -46.5t-49.5 -32t-65 -12t-65 12t-50 32t-32 46.5t-11 55.5q0 7 5 12t12 5h63q8 0 12.5 -5t4.5 -12q0 -23 19 -39.5t42 -16.5t41.5 16.5t18.5 39.5z" />
    <glyph glyph-name="abreve" unicode="&#x103;" 
d="M242 204q-16 0 -26 -5.5t-15.5 -13.5t-7.5 -16.5t-2 -14.5q0 -28 19.5 -40.5t46.5 -12.5q43 0 72 15t29 54v24q0 10 -10 10h-106zM276 397q-8 0 -19.5 -1.5t-22.5 -5.5t-19 -11.5t-8 -19.5q0 -13 -6.5 -16t-20.5 -3h-72q-8 0 -14 6t-6 14q0 30 13.5 57t38 48t60.5 33.5
t81 12.5q91 0 145.5 -46.5t54.5 -134.5v-310q0 -8 -6 -14t-14 -6h-50q-8 0 -14 7q-5 6 -7.5 13t-12.5 7q-7 0 -16 -6t-23 -13t-33.5 -13t-47.5 -6q-88 0 -138 43t-50 122q0 26 10.5 53.5t32 50.5t54 37.5t75.5 14.5h102q10 0 10 10v16q0 31 -22 46t-55 15zM345 713
q0 7 4.5 12t12.5 5h63q7 0 12 -5t5 -12q0 -29 -11 -55.5t-31.5 -46.5t-49.5 -32t-65 -12t-65 12t-50 32t-32 46.5t-11 55.5q0 7 5 12t12 5h63q8 0 12.5 -5t4.5 -12q0 -23 19 -39.5t42 -16.5t41.5 16.5t18.5 39.5z" />
    <glyph glyph-name="Aogonek" unicode="&#x104;" 
d="M539 20q2 -7 -3 -13.5t-17 -6.5q-26 0 -42.5 -19t-16.5 -42q0 -26 16 -42.5t45 -16.5q8 0 14 -6t6 -14v-60q0 -8 -6 -14t-14 -6q-91 0 -135 43t-44 112q0 28 13.5 53t33.5 45l-25 85q-2 6 -5 10.5t-10 4.5h-152q-12 0 -15 -15l-28 -103q-3 -15 -19 -15h-105
q-12 0 -17 6.5t-3 13.5l179 665q3 15 19 15h134q16 0 19 -15zM280 524q-1 4 -5 4h-2q-4 0 -5 -4l-48 -240q-3 -11 8 -11h92q11 0 8 11z" />
    <glyph glyph-name="aogonek" unicode="&#x105;" 
d="M275 397q-8 0 -19.5 -1t-22.5 -5t-19 -11.5t-8 -20.5t-6.5 -16t-20.5 -3h-72q-8 0 -14 6t-6 14q0 30 13.5 57t38 48t60.5 33.5t81 12.5q91 0 145.5 -46.5t54.5 -134.5v-310q0 -8 -6 -14t-14 -6q-29 0 -44.5 -15t-15.5 -45q0 -25 15 -42.5t35 -17.5q8 0 14 -6t6 -14v-60
q0 -8 -6 -14t-14 -6q-35 0 -65 9.5t-52 28.5t-34.5 47t-12.5 65q0 18 6 35.5t14 28.5q-22 -5 -50 -5q-88 0 -138 43t-50 122q0 26 10.5 53.5t32 50.5t54 37.5t75.5 14.5h102q10 0 10 10v16q0 31 -22 46t-55 15zM241 204q-16 0 -26 -5.5t-15.5 -13.5t-7.5 -16.5t-2 -14.5
q0 -28 19.5 -40.5t46.5 -12.5q43 0 72 15t29 54v24q0 10 -10 10h-106z" />
    <glyph glyph-name="Cacute" unicode="&#x106;" 
d="M279 130q43 0 69 24.5t29 63.5q1 8 6.5 14t13.5 6h100q8 0 14 -6t6 -14q0 -50 -18 -92t-49.5 -72.5t-75 -47.5t-95.5 -17t-93.5 17.5t-72 48t-49 70.5t-23.5 85q-4 31 -6 67t-2 73t2 72.5t6 67.5q5 45 23.5 85t49 70.5t72 48t93.5 17.5t95.5 -17t75 -47.5t49.5 -72.5
t18 -92q0 -8 -6 -14t-14 -6h-100q-8 0 -13.5 6t-6.5 14q-3 39 -29 63.5t-69 24.5q-46 0 -69.5 -23.5t-27.5 -56.5q-4 -32 -6 -67.5t-2 -72.5t2 -73t6 -67q4 -33 27.5 -56.5t69.5 -23.5zM457 910q14 0 17 -9t-5 -18l-115 -121q-5 -5 -10.5 -8.5t-19.5 -3.5h-69q-10 0 -16 9
t3 21l82 114q4 5 9.5 10.5t16.5 5.5h107z" />
    <glyph glyph-name="cacute" unicode="&#x107;" 
d="M279 119q33 0 53 14.5t26 55.5q3 16 19 16h89q8 0 12.5 -6t4.5 -14q0 -46 -16.5 -82t-44.5 -61.5t-65 -39t-78 -13.5q-46 0 -82.5 14.5t-63 39.5t-42 59t-20.5 73q-2 15 -3 34.5t-1 40.5t1 40.5t3 34.5q5 39 20.5 73t42 59t63 39.5t82.5 14.5q41 0 78 -13t65 -38.5
t44.5 -62t16.5 -82.5q0 -8 -4.5 -14t-12.5 -6h-89q-7 0 -12.5 4t-6.5 12q-2 37 -23.5 53.5t-56.5 16.5q-38 0 -55.5 -13.5t-21.5 -42.5q-2 -15 -3 -34.5t-1 -40.5t1 -40.5t3 -34.5q3 -26 21.5 -41t56.5 -15zM417 730q14 0 17 -9t-5 -18l-115 -121q-5 -5 -10.5 -8.5
t-19.5 -3.5h-69q-10 0 -16 9t3 21l82 114q4 5 9.5 10.5t16.5 5.5h107z" />
    <glyph glyph-name="Ccircumflex" unicode="&#x108;" 
d="M279 130q43 0 69 24.5t29 63.5q1 8 6.5 14t13.5 6h100q8 0 14 -6t6 -14q0 -50 -18 -92t-49.5 -72.5t-75 -47.5t-95.5 -17t-93.5 17.5t-72 48t-49 70.5t-23.5 85q-4 31 -6 67t-2 73t2 72.5t6 67.5q5 45 23.5 85t49 70.5t72 48t93.5 17.5t95.5 -17t75 -47.5t49.5 -72.5
t18 -92q0 -8 -6 -14t-14 -6h-100q-8 0 -13.5 6t-6.5 14q-3 39 -29 63.5t-69 24.5q-46 0 -69.5 -23.5t-27.5 -56.5q-4 -32 -6 -67.5t-2 -72.5t2 -73t6 -67q4 -33 27.5 -56.5t69.5 -23.5zM245 766q-4 -5 -12 -10.5t-19 -5.5h-95q-13 0 -14.5 10t3.5 15l119 123q5 5 10.5 8.5
t19.5 3.5h62q13 0 18.5 -3.5t10.5 -8.5l119 -123q5 -5 3 -15t-16 -10h-94q-11 0 -19 5.5t-12 10.5l-35 44q-7 10 -14 0z" />
    <glyph glyph-name="ccircumflex" unicode="&#x109;" 
d="M279 119q33 0 53 14.5t26 55.5q3 16 19 16h89q8 0 12.5 -6t4.5 -14q0 -46 -16.5 -82t-44.5 -61.5t-65 -39t-78 -13.5q-46 0 -82.5 14.5t-63 39.5t-42 59t-20.5 73q-2 15 -3 34.5t-1 40.5t1 40.5t3 34.5q5 39 20.5 73t42 59t63 39.5t82.5 14.5q41 0 78 -13t65 -38.5
t44.5 -62t16.5 -82.5q0 -8 -4.5 -14t-12.5 -6h-89q-7 0 -12.5 4t-6.5 12q-2 37 -23.5 53.5t-56.5 16.5q-38 0 -55.5 -13.5t-21.5 -42.5q-2 -15 -3 -34.5t-1 -40.5t1 -40.5t3 -34.5q3 -26 21.5 -41t56.5 -15zM242 586q-4 -5 -12 -10.5t-19 -5.5h-95q-13 0 -14.5 10t3.5 15
l119 123q5 5 10.5 8.5t19.5 3.5h62q13 0 18.5 -3.5t10.5 -8.5l119 -123q5 -5 3 -15t-16 -10h-94q-11 0 -19 5.5t-12 10.5l-35 44q-7 10 -14 0z" />
    <glyph glyph-name="Cdotaccent" unicode="&#x10a;" 
d="M279 130q43 0 69 24.5t29 63.5q1 8 6.5 14t13.5 6h100q8 0 14 -6t6 -14q0 -50 -18 -92t-49.5 -72.5t-75 -47.5t-95.5 -17t-93.5 17.5t-72 48t-49 70.5t-23.5 85q-4 31 -6 67t-2 73t2 72.5t6 67.5q5 45 23.5 85t49 70.5t72 48t93.5 17.5t95.5 -17t75 -47.5t49.5 -72.5
t18 -92q0 -8 -6 -14t-14 -6h-100q-8 0 -13.5 6t-6.5 14q-3 39 -29 63.5t-69 24.5q-46 0 -69.5 -23.5t-27.5 -56.5q-4 -32 -6 -67.5t-2 -72.5t2 -73t6 -67q4 -33 27.5 -56.5t69.5 -23.5zM355 766q0 -16 -16 -16h-108q-16 0 -16 16v108q0 6 4.5 11t11.5 5h108q7 0 11.5 -5
t4.5 -11v-108z" />
    <glyph glyph-name="cdotaccent" unicode="&#x10b;" 
d="M279 119q33 0 53 14.5t26 55.5q3 16 19 16h89q8 0 12.5 -6t4.5 -14q0 -46 -16.5 -82t-44.5 -61.5t-65 -39t-78 -13.5q-46 0 -82.5 14.5t-63 39.5t-42 59t-20.5 73q-2 15 -3 34.5t-1 40.5t1 40.5t3 34.5q5 39 20.5 73t42 59t63 39.5t82.5 14.5q41 0 78 -13t65 -38.5
t44.5 -62t16.5 -82.5q0 -8 -4.5 -14t-12.5 -6h-89q-7 0 -12.5 4t-6.5 12q-2 37 -23.5 53.5t-56.5 16.5q-38 0 -55.5 -13.5t-21.5 -42.5q-2 -15 -3 -34.5t-1 -40.5t1 -40.5t3 -34.5q3 -26 21.5 -41t56.5 -15zM350 586q0 -16 -16 -16h-108q-16 0 -16 16v108q0 6 4.5 11t11.5 5
h108q7 0 11.5 -5t4.5 -11v-108z" />
    <glyph glyph-name="Ccaron" unicode="&#x10c;" 
d="M279 130q43 0 69 24.5t29 63.5q1 8 6.5 14t13.5 6h100q8 0 14 -6t6 -14q0 -50 -18 -92t-49.5 -72.5t-75 -47.5t-95.5 -17t-93.5 17.5t-72 48t-49 70.5t-23.5 85q-4 31 -6 67t-2 73t2 72.5t6 67.5q5 45 23.5 85t49 70.5t72 48t93.5 17.5t95.5 -17t75 -47.5t49.5 -72.5
t18 -92q0 -8 -6 -14t-14 -6h-100q-8 0 -13.5 6t-6.5 14q-3 39 -29 63.5t-69 24.5q-46 0 -69.5 -23.5t-27.5 -56.5q-4 -32 -6 -67.5t-2 -72.5t2 -73t6 -67q4 -33 27.5 -56.5t69.5 -23.5zM267 850q7 -11 14 0l35 44q4 5 12 10.5t19 5.5h94q14 0 16 -10t-3 -15l-119 -123
q-5 -5 -10.5 -8.5t-18.5 -3.5h-62q-14 0 -19.5 3.5t-10.5 8.5l-119 123q-5 5 -3.5 15t14.5 10h95q11 0 19 -5.5t12 -10.5z" />
    <glyph glyph-name="ccaron" unicode="&#x10d;" 
d="M279 119q33 0 53 14.5t26 55.5q3 16 19 16h89q8 0 12.5 -6t4.5 -14q0 -46 -16.5 -82t-44.5 -61.5t-65 -39t-78 -13.5q-46 0 -82.5 14.5t-63 39.5t-42 59t-20.5 73q-2 15 -3 34.5t-1 40.5t1 40.5t3 34.5q5 39 20.5 73t42 59t63 39.5t82.5 14.5q41 0 78 -13t65 -38.5
t44.5 -62t16.5 -82.5q0 -8 -4.5 -14t-12.5 -6h-89q-7 0 -12.5 4t-6.5 12q-2 37 -23.5 53.5t-56.5 16.5q-38 0 -55.5 -13.5t-21.5 -42.5q-2 -15 -3 -34.5t-1 -40.5t1 -40.5t3 -34.5q3 -26 21.5 -41t56.5 -15zM277 670q7 -11 14 0l35 44q4 5 12 10.5t19 5.5h94q14 0 16 -10
t-3 -15l-119 -123q-5 -5 -10.5 -8.5t-18.5 -3.5h-62q-14 0 -19.5 3.5t-10.5 8.5l-119 123q-5 5 -3.5 15t14.5 10h95q11 0 19 -5.5t12 -10.5z" />
    <glyph glyph-name="Dcaron" unicode="&#x10e;" 
d="M64 0q-8 0 -14 6t-6 14v660q0 8 6 14t14 6h210q46 0 84.5 -17.5t67.5 -48t47.5 -70.5t23.5 -85q8 -63 8 -129t-8 -129q-5 -45 -23.5 -85t-47.5 -70.5t-67.5 -48t-84.5 -17.5h-210zM274 140q35 0 56.5 24t25.5 57q8 63 8 129t-8 129q-4 33 -25.5 57t-56.5 24h-80
q-10 0 -10 -10v-400q0 -10 10 -10h80zM237 850q7 -11 14 0l35 44q4 5 12 10.5t19 5.5h94q14 0 16 -10t-3 -15l-119 -123q-5 -5 -10.5 -8.5t-18.5 -3.5h-62q-14 0 -19.5 3.5t-10.5 8.5l-119 123q-5 5 -3.5 15t14.5 10h95q11 0 19 -5.5t12 -10.5z" />
    <glyph glyph-name="dcaron" unicode="&#x10f;" 
d="M256 115q37 0 55.5 17t20.5 43q1 15 1.5 34.5t0.5 40.5t-0.5 40.5t-1.5 34.5q-2 29 -20.5 44.5t-55.5 15.5q-36 0 -54.5 -17.5t-20.5 -42.5q-1 -15 -1.5 -34.5t-0.5 -40.5t0.5 -40.5t1.5 -34.5q2 -25 20.5 -42.5t54.5 -17.5zM241 -11q-39 0 -72.5 14.5t-58.5 39.5
t-40.5 59t-18.5 73q-1 15 -1.5 34.5t-0.5 40.5t0.5 40.5t1.5 34.5q3 39 18.5 73t40.5 59t58.5 39.5t72.5 14.5q23 0 36 -3.5t24 -8.5t20.5 -0.5t9.5 21.5v170q0 8 6 14t14 6h90q8 0 14 -6t6 -14v-670q0 -8 -6 -14t-14 -6h-50q-7 0 -14 7q-5 5 -11 10.5t-14 5.5
q-11 0 -19 -5.5t-19.5 -11.5t-28 -11.5t-44.5 -5.5zM514 560q-8 0 -14 6t-6 14v100q0 8 6 14t14 6h100q8 0 14 -6t6 -14v-97q0 -20 -6.5 -37.5t-15.5 -31.5l-34 -54q-5 -7 -12 -13.5t-22 -6.5h-10q-15 0 -21.5 12t0.5 26l34 69q3 5 -0.5 9t-8.5 4h-24z" />
    <glyph glyph-name="Dcroat" unicode="&#x110;" 
d="M44 680q0 8 6 14t14 6h210q46 0 84.5 -17.5t67.5 -48t47.5 -70.5t23.5 -85q8 -63 8 -129t-8 -129q-5 -45 -23.5 -85t-47.5 -70.5t-67.5 -48t-84.5 -17.5h-210q-8 0 -14 6t-6 14v250q0 10 -10 10h-7q-8 0 -14 6t-6 14v100q0 8 6 14t14 6h7q10 0 10 10v250zM184 150
q0 -10 10 -10h80q35 0 56.5 24t25.5 57q8 63 8 129t-8 129q-4 33 -25.5 57t-56.5 24h-80q-10 0 -10 -10v-120q0 -10 10 -10h80q8 0 14 -6t6 -14v-100q0 -8 -6 -14t-14 -6h-80q-10 0 -10 -10v-120z" />
    <glyph glyph-name="dcroat" unicode="&#x111;" 
d="M267 115q37 0 55.5 17t20.5 43q1 15 1.5 34.5t0.5 40.5t-0.5 40.5t-1.5 34.5q-2 29 -20.5 44.5t-55.5 15.5q-36 0 -54.5 -17.5t-20.5 -42.5q-1 -15 -1.5 -34.5t-0.5 -40.5t0.5 -40.5t1.5 -34.5q2 -25 20.5 -42.5t54.5 -17.5zM342 547q0 10 -10 10h-60q-8 0 -14 6t-6 14
v50q0 8 6 14t14 6h60q10 0 10 10v33q0 8 6 14t14 6h90q8 0 14 -6t6 -14v-33q0 -10 10 -10h25q8 0 14 -6t6 -14v-50q0 -8 -6 -14t-14 -6h-25q-10 0 -10 -10v-527q0 -8 -6 -14t-14 -6h-50q-7 0 -14 7q-5 5 -11 10.5t-14 5.5q-11 0 -19 -5.5t-19.5 -11.5t-28 -11.5t-44.5 -5.5
q-39 0 -72.5 14.5t-58.5 39.5t-40.5 59t-18.5 73q-1 15 -1.5 34.5t-0.5 40.5t0.5 40.5t1.5 34.5q3 39 18.5 73t40.5 59t58.5 39.5t72.5 14.5q23 0 36 -3.5t24 -8.5t20.5 -0.5t9.5 21.5v27z" />
    <glyph glyph-name="Emacron" unicode="&#x112;" 
d="M211 430q0 -10 10 -10h225q8 0 14 -6t6 -14v-100q0 -8 -6 -14t-14 -6h-225q-10 0 -10 -10v-120q0 -10 10 -10h237q8 0 14 -6t6 -14v-100q0 -8 -6 -14t-14 -6h-367q-8 0 -14 6t-6 14v660q0 8 6 14t14 6h363q8 0 14 -6t6 -14v-100q0 -8 -6 -14t-14 -6h-233q-10 0 -10 -10
v-120zM144 760q-8 0 -14 6t-6 14v58q0 8 6 14t14 6h262q8 0 14 -6t6 -14v-58q0 -8 -6 -14t-14 -6h-262z" />
    <glyph glyph-name="emacron" unicode="&#x113;" 
d="M190 195q0 -42 26 -63.5t62 -21.5q29 0 49 9t30 33q7 17 23 17h83q8 0 14 -5t3 -17q-17 -70 -67.5 -114t-134.5 -44q-46 0 -82 14.5t-62.5 39.5t-42 59t-20.5 73q-2 15 -3 34.5t-1 40.5t1 40.5t3 34.5q5 39 20.5 73t42 59t62.5 39.5t82 14.5q45 0 82.5 -13t64.5 -38.5
t42 -62t15 -84.5v-83q0 -8 -6 -14t-14 -6h-257q-15 0 -15 -15zM191 330q0 -9 10 -9h152q10 0 10 9q0 16 -7 28t-19 19.5t-27.5 11.5t-31.5 4q-43 0 -65 -17t-22 -46zM154 596q-8 0 -14 6t-6 14v58q0 8 6 14t14 6h262q8 0 14 -6t6 -14v-58q0 -8 -6 -14t-14 -6h-262z" />
    <glyph glyph-name="Ebreve" unicode="&#x114;" 
d="M211 430q0 -10 10 -10h225q8 0 14 -6t6 -14v-100q0 -8 -6 -14t-14 -6h-225q-10 0 -10 -10v-120q0 -10 10 -10h237q8 0 14 -6t6 -14v-100q0 -8 -6 -14t-14 -6h-367q-8 0 -14 6t-6 14v660q0 8 6 14t14 6h363q8 0 14 -6t6 -14v-100q0 -8 -6 -14t-14 -6h-233q-10 0 -10 -10
v-120zM335 886q0 7 4.5 12t12.5 5h63q7 0 12 -5t5 -12q0 -29 -11 -55.5t-31.5 -46.5t-49.5 -32t-65 -12t-65 12t-50 32t-32 46.5t-11 55.5q0 7 5 12t12 5h63q8 0 12.5 -5t4.5 -12q0 -23 19 -39.5t42 -16.5t41.5 16.5t18.5 39.5z" />
    <glyph glyph-name="ebreve" unicode="&#x115;" 
d="M190 195q0 -42 26 -63.5t62 -21.5q29 0 49 9t30 33q7 17 23 17h83q8 0 14 -5t3 -17q-17 -70 -67.5 -114t-134.5 -44q-46 0 -82 14.5t-62.5 39.5t-42 59t-20.5 73q-2 15 -3 34.5t-1 40.5t1 40.5t3 34.5q5 39 20.5 73t42 59t62.5 39.5t82 14.5q45 0 82.5 -13t64.5 -38.5
t42 -62t15 -84.5v-83q0 -8 -6 -14t-14 -6h-257q-15 0 -15 -15zM191 330q0 -9 10 -9h152q10 0 10 9q0 16 -7 28t-19 19.5t-27.5 11.5t-31.5 4q-43 0 -65 -17t-22 -46zM345 713q0 7 4.5 12t12.5 5h63q7 0 12 -5t5 -12q0 -29 -11 -55.5t-31.5 -46.5t-49.5 -32t-65 -12t-65 12
t-50 32t-32 46.5t-11 55.5q0 7 5 12t12 5h63q8 0 12.5 -5t4.5 -12q0 -23 19 -39.5t42 -16.5t41.5 16.5t18.5 39.5z" />
    <glyph glyph-name="Edotaccent" unicode="&#x116;" 
d="M211 430q0 -10 10 -10h225q8 0 14 -6t6 -14v-100q0 -8 -6 -14t-14 -6h-225q-10 0 -10 -10v-120q0 -10 10 -10h237q8 0 14 -6t6 -14v-100q0 -8 -6 -14t-14 -6h-367q-8 0 -14 6t-6 14v660q0 8 6 14t14 6h363q8 0 14 -6t6 -14v-100q0 -8 -6 -14t-14 -6h-233q-10 0 -10 -10
v-120zM355 766q0 -16 -16 -16h-108q-16 0 -16 16v108q0 6 4.5 11t11.5 5h108q7 0 11.5 -5t4.5 -11v-108z" />
    <glyph glyph-name="edotaccent" unicode="&#x117;" 
d="M190 195q0 -42 26 -63.5t62 -21.5q29 0 49 9t30 33q7 17 23 17h83q8 0 14 -5t3 -17q-17 -70 -67.5 -114t-134.5 -44q-46 0 -82 14.5t-62.5 39.5t-42 59t-20.5 73q-2 15 -3 34.5t-1 40.5t1 40.5t3 34.5q5 39 20.5 73t42 59t62.5 39.5t82 14.5q45 0 82.5 -13t64.5 -38.5
t42 -62t15 -84.5v-83q0 -8 -6 -14t-14 -6h-257q-15 0 -15 -15zM191 330q0 -9 10 -9h152q10 0 10 9q0 16 -7 28t-19 19.5t-27.5 11.5t-31.5 4q-43 0 -65 -17t-22 -46zM355 586q0 -16 -16 -16h-108q-16 0 -16 16v108q0 6 4.5 11t11.5 5h108q7 0 11.5 -5t4.5 -11v-108z" />
    <glyph glyph-name="Eogonek" unicode="&#x118;" 
d="M211 430q0 -10 10 -10h225q8 0 14 -6t6 -14v-100q0 -8 -6 -14t-14 -6h-225q-10 0 -10 -10v-120q0 -10 10 -10h237q8 0 14 -6t6 -14v-100q0 -8 -6 -14t-14 -6q-26 0 -45.5 -16t-19.5 -44q0 -25 17.5 -42.5t42.5 -17.5q8 0 14 -6t6 -14v-60q0 -8 -6 -14t-14 -6
q-38 0 -69.5 9.5t-55 29t-36.5 50t-13 71.5q0 18 4.5 33.5t12.5 26.5h-205q-8 0 -14 6t-6 14v660q0 8 6 14t14 6h363q8 0 14 -6t6 -14v-100q0 -8 -6 -14t-14 -6h-233q-10 0 -10 -10v-120v0z" />
    <glyph glyph-name="eogonek" unicode="&#x119;" 
d="M447 72q-10 -14 -21 -27.5t-20.5 -29.5t-15.5 -34.5t-6 -40.5q0 -25 17.5 -42.5t42.5 -17.5q8 0 14 -6t6 -14v-60q0 -8 -6 -14t-14 -6q-38 0 -69.5 10t-55 29.5t-36.5 48.5t-13 67q0 13 3.5 28t9.5 26h-5q-46 0 -82 14.5t-62.5 39.5t-42 59t-20.5 73q-2 15 -3 34.5
t-1 40.5t1 40.5t3 34.5q5 39 20.5 73t42 59t62.5 39.5t82 14.5q45 0 82.5 -13t64.5 -38.5t42 -62t15 -84.5v-83q0 -8 -6 -14t-14 -6h-257q-15 0 -15 -15q0 -42 26 -63.5t62 -21.5q29 0 49 9t30 33q7 17 23 17h83q8 0 14 -5t3 -17q-5 -21 -11.5 -37.5t-21.5 -37.5zM191 330
q0 -9 10 -9h152q10 0 10 9q0 16 -7 28t-19 19.5t-27.5 11.5t-31.5 4q-43 0 -65 -17t-22 -46z" />
    <glyph glyph-name="Ecaron" unicode="&#x11a;" 
d="M211 430q0 -10 10 -10h225q8 0 14 -6t6 -14v-100q0 -8 -6 -14t-14 -6h-225q-10 0 -10 -10v-120q0 -10 10 -10h237q8 0 14 -6t6 -14v-100q0 -8 -6 -14t-14 -6h-367q-8 0 -14 6t-6 14v660q0 8 6 14t14 6h363q8 0 14 -6t6 -14v-100q0 -8 -6 -14t-14 -6h-233q-10 0 -10 -10
v-120zM267 850q7 -11 14 0l35 44q4 5 12 10.5t19 5.5h94q14 0 16 -10t-3 -15l-119 -123q-5 -5 -10.5 -8.5t-18.5 -3.5h-62q-14 0 -19.5 3.5t-10.5 8.5l-119 123q-5 5 -3.5 15t14.5 10h95q11 0 19 -5.5t12 -10.5z" />
    <glyph glyph-name="ecaron" unicode="&#x11b;" 
d="M190 195q0 -42 26 -63.5t62 -21.5q29 0 49 9t30 33q7 17 23 17h83q8 0 14 -5t3 -17q-17 -70 -67.5 -114t-134.5 -44q-46 0 -82 14.5t-62.5 39.5t-42 59t-20.5 73q-2 15 -3 34.5t-1 40.5t1 40.5t3 34.5q5 39 20.5 73t42 59t62.5 39.5t82 14.5q45 0 82.5 -13t64.5 -38.5
t42 -62t15 -84.5v-83q0 -8 -6 -14t-14 -6h-257q-15 0 -15 -15zM191 330q0 -9 10 -9h152q10 0 10 9q0 16 -7 28t-19 19.5t-27.5 11.5t-31.5 4q-43 0 -65 -17t-22 -46zM277 670q7 -11 14 0l35 44q4 5 12 10.5t19 5.5h94q14 0 16 -10t-3 -15l-119 -123q-5 -5 -10.5 -8.5
t-18.5 -3.5h-62q-14 0 -19.5 3.5t-10.5 8.5l-119 123q-5 5 -3.5 15t14.5 10h95q11 0 19 -5.5t12 -10.5z" />
    <glyph glyph-name="Gcircumflex" unicode="&#x11c;" 
d="M377 482q-3 39 -29 63.5t-69 24.5q-46 0 -69.5 -23.5t-27.5 -56.5q-4 -32 -6 -67.5t-2 -72.5t2 -73t6 -67q4 -33 27.5 -56.5t69.5 -23.5q45 0 73 22t28 56v43q0 10 -10 10h-68q-8 0 -14 6t-6 14v95q0 8 6 14t14 6h195q8 0 14 -6t6 -14v-168q0 -45 -18 -85t-49.5 -69.5
t-75.5 -47t-95 -17.5q-52 0 -93.5 17.5t-72 48t-49 70.5t-23.5 85q-4 31 -6 67t-2 73t2 72.5t6 67.5q5 45 23.5 85t49 70.5t72 48t93.5 17.5t95.5 -17t75 -47.5t49.5 -72.5t18 -92q0 -8 -6 -14t-14 -6h-100q-8 0 -13.5 6t-6.5 14zM245 766q-4 -5 -12 -10.5t-19 -5.5h-95
q-13 0 -14.5 10t3.5 15l119 123q5 5 10.5 8.5t19.5 3.5h62q13 0 18.5 -3.5t10.5 -8.5l119 -123q5 -5 3 -15t-16 -10h-94q-11 0 -19 5.5t-12 10.5l-35 44q-7 10 -14 0z" />
    <glyph glyph-name="gcircumflex" unicode="&#x11d;" 
d="M461 500q8 0 14 -6t6 -14v-510q0 -38 -15 -71.5t-41 -59t-62.5 -40t-78.5 -14.5q-40 0 -75.5 12t-62.5 34t-43 52.5t-16 66.5q0 8 6 14t14 6h75q18 0 21 -6t5 -17q4 -18 22 -30.5t48 -12.5q28 0 50.5 16.5t22.5 49.5v10q0 32 -30 21q-11 -4 -24 -8t-36 -4
q-39 0 -72.5 14.5t-58.5 39.5t-40.5 59t-18.5 73q-1 15 -1.5 34.5t-0.5 40.5t0.5 40.5t1.5 34.5q3 39 18.5 73t40.5 59t58.5 39.5t72.5 14.5q28 0 44.5 -5.5t28 -11.5t19.5 -11.5t19 -5.5q8 0 14 5.5t11 10.5q7 7 14 7h50zM276 385q-36 0 -54.5 -17.5t-20.5 -42.5
q-1 -15 -1.5 -34.5t-0.5 -40.5t0.5 -40.5t1.5 -34.5q2 -25 20.5 -42.5t54.5 -17.5q37 0 55.5 17t20.5 43q1 15 1.5 34.5t0.5 40.5t-0.5 40.5t-1.5 34.5q-2 29 -20.5 44.5t-55.5 15.5zM242 586q-4 -5 -12 -10.5t-19 -5.5h-95q-13 0 -14.5 10t3.5 15l119 123q5 5 10.5 8.5
t19.5 3.5h62q13 0 18.5 -3.5t10.5 -8.5l119 -123q5 -5 3 -15t-16 -10h-94q-11 0 -19 5.5t-12 10.5l-35 44q-7 10 -14 0z" />
    <glyph glyph-name="Gbreve" unicode="&#x11e;" 
d="M377 482q-3 39 -29 63.5t-69 24.5q-46 0 -69.5 -23.5t-27.5 -56.5q-4 -32 -6 -67.5t-2 -72.5t2 -73t6 -67q4 -33 27.5 -56.5t69.5 -23.5q45 0 73 22t28 56v43q0 10 -10 10h-68q-8 0 -14 6t-6 14v95q0 8 6 14t14 6h195q8 0 14 -6t6 -14v-168q0 -45 -18 -85t-49.5 -69.5
t-75.5 -47t-95 -17.5q-52 0 -93.5 17.5t-72 48t-49 70.5t-23.5 85q-4 31 -6 67t-2 73t2 72.5t6 67.5q5 45 23.5 85t49 70.5t72 48t93.5 17.5t95.5 -17t75 -47.5t49.5 -72.5t18 -92q0 -8 -6 -14t-14 -6h-100q-8 0 -13.5 6t-6.5 14zM335 886q0 7 4.5 12t12.5 5h63q7 0 12 -5
t5 -12q0 -29 -11 -55.5t-31.5 -46.5t-49.5 -32t-65 -12t-65 12t-50 32t-32 46.5t-11 55.5q0 7 5 12t12 5h63q8 0 12.5 -5t4.5 -12q0 -23 19 -39.5t42 -16.5t41.5 16.5t18.5 39.5z" />
    <glyph glyph-name="gbreve" unicode="&#x11f;" 
d="M461 500q8 0 14 -6t6 -14v-510q0 -38 -15 -71.5t-41 -59t-62.5 -40t-78.5 -14.5q-40 0 -75.5 12t-62.5 34t-43 52.5t-16 66.5q0 8 6 14t14 6h75q18 0 21 -6t5 -17q4 -18 22 -30.5t48 -12.5q28 0 50.5 16.5t22.5 49.5v10q0 32 -30 21q-11 -4 -24 -8t-36 -4
q-39 0 -72.5 14.5t-58.5 39.5t-40.5 59t-18.5 73q-1 15 -1.5 34.5t-0.5 40.5t0.5 40.5t1.5 34.5q3 39 18.5 73t40.5 59t58.5 39.5t72.5 14.5q28 0 44.5 -5.5t28 -11.5t19.5 -11.5t19 -5.5q8 0 14 5.5t11 10.5q7 7 14 7h50zM276 385q-36 0 -54.5 -17.5t-20.5 -42.5
q-1 -15 -1.5 -34.5t-0.5 -40.5t0.5 -40.5t1.5 -34.5q2 -25 20.5 -42.5t54.5 -17.5q37 0 55.5 17t20.5 43q1 15 1.5 34.5t0.5 40.5t-0.5 40.5t-1.5 34.5q-2 29 -20.5 44.5t-55.5 15.5zM345 713q0 7 4.5 12t12.5 5h63q7 0 12 -5t5 -12q0 -29 -11 -55.5t-31.5 -46.5t-49.5 -32
t-65 -12t-65 12t-50 32t-32 46.5t-11 55.5q0 7 5 12t12 5h63q8 0 12.5 -5t4.5 -12q0 -23 19 -39.5t42 -16.5t41.5 16.5t18.5 39.5z" />
    <glyph glyph-name="Gdotaccent" unicode="&#x120;" 
d="M377 482q-3 39 -29 63.5t-69 24.5q-46 0 -69.5 -23.5t-27.5 -56.5q-4 -32 -6 -67.5t-2 -72.5t2 -73t6 -67q4 -33 27.5 -56.5t69.5 -23.5q45 0 73 22t28 56v43q0 10 -10 10h-68q-8 0 -14 6t-6 14v95q0 8 6 14t14 6h195q8 0 14 -6t6 -14v-168q0 -45 -18 -85t-49.5 -69.5
t-75.5 -47t-95 -17.5q-52 0 -93.5 17.5t-72 48t-49 70.5t-23.5 85q-4 31 -6 67t-2 73t2 72.5t6 67.5q5 45 23.5 85t49 70.5t72 48t93.5 17.5t95.5 -17t75 -47.5t49.5 -72.5t18 -92q0 -8 -6 -14t-14 -6h-100q-8 0 -13.5 6t-6.5 14zM355 766q0 -16 -16 -16h-108q-16 0 -16 16
v108q0 6 4.5 11t11.5 5h108q7 0 11.5 -5t4.5 -11v-108z" />
    <glyph glyph-name="gdotaccent" unicode="&#x121;" 
d="M461 500q8 0 14 -6t6 -14v-510q0 -38 -15 -71.5t-41 -59t-62.5 -40t-78.5 -14.5q-40 0 -75.5 12t-62.5 34t-43 52.5t-16 66.5q0 8 6 14t14 6h75q18 0 21 -6t5 -17q4 -18 22 -30.5t48 -12.5q28 0 50.5 16.5t22.5 49.5v10q0 32 -30 21q-11 -4 -24 -8t-36 -4
q-39 0 -72.5 14.5t-58.5 39.5t-40.5 59t-18.5 73q-1 15 -1.5 34.5t-0.5 40.5t0.5 40.5t1.5 34.5q3 39 18.5 73t40.5 59t58.5 39.5t72.5 14.5q28 0 44.5 -5.5t28 -11.5t19.5 -11.5t19 -5.5q8 0 14 5.5t11 10.5q7 7 14 7h50zM276 385q-36 0 -54.5 -17.5t-20.5 -42.5
q-1 -15 -1.5 -34.5t-0.5 -40.5t0.5 -40.5t1.5 -34.5q2 -25 20.5 -42.5t54.5 -17.5q37 0 55.5 17t20.5 43q1 15 1.5 34.5t0.5 40.5t-0.5 40.5t-1.5 34.5q-2 29 -20.5 44.5t-55.5 15.5zM355 586q0 -16 -16 -16h-108q-16 0 -16 16v108q0 6 4.5 11t11.5 5h108q7 0 11.5 -5
t4.5 -11v-108z" />
    <glyph glyph-name="Gcommaaccent" unicode="&#x122;" 
d="M377 482q-3 39 -29 63.5t-69 24.5q-46 0 -69.5 -23.5t-27.5 -56.5q-4 -32 -6 -67.5t-2 -72.5t2 -73t6 -67q4 -33 27.5 -56.5t69.5 -23.5q45 0 73 22t28 56v43q0 10 -10 10h-68q-8 0 -14 6t-6 14v95q0 8 6 14t14 6h195q8 0 14 -6t6 -14v-168q0 -45 -18 -85t-49.5 -69.5
t-75.5 -47t-95 -17.5q-52 0 -93.5 17.5t-72 48t-49 70.5t-23.5 85q-4 31 -6 67t-2 73t2 72.5t6 67.5q5 45 23.5 85t49 70.5t72 48t93.5 17.5t95.5 -17t75 -47.5t49.5 -72.5t18 -92q0 -8 -6 -14t-14 -6h-100q-8 0 -13.5 6t-6.5 14zM225 -185q-8 0 -14 6t-6 14v100q0 8 6 14
t14 6h100q8 0 14 -6t6 -14v-97q0 -20 -6.5 -37.5t-15.5 -31.5l-34 -54q-5 -7 -12 -13.5t-22 -6.5h-10q-15 0 -21.5 12t0.5 26l34 69q3 5 -0.5 9t-8.5 4h-24z" />
    <glyph glyph-name="gcommaaccent" unicode="&#x123;" 
d="M461 500q8 0 14 -6t6 -14v-510q0 -38 -15 -71.5t-41 -59t-62.5 -40t-78.5 -14.5q-40 0 -75.5 12t-62.5 34t-43 52.5t-16 66.5q0 8 6 14t14 6h75q18 0 21 -6t5 -17q4 -18 22 -30.5t48 -12.5q28 0 50.5 16.5t22.5 49.5v10q0 32 -30 21q-11 -4 -24 -8t-36 -4
q-39 0 -72.5 14.5t-58.5 39.5t-40.5 59t-18.5 73q-1 15 -1.5 34.5t-0.5 40.5t0.5 40.5t1.5 34.5q3 39 18.5 73t40.5 59t58.5 39.5t72.5 14.5q28 0 44.5 -5.5t28 -11.5t19.5 -11.5t19 -5.5q8 0 14 5.5t11 10.5q7 7 14 7h50zM276 385q-36 0 -54.5 -17.5t-20.5 -42.5
q-1 -15 -1.5 -34.5t-0.5 -40.5t0.5 -40.5t1.5 -34.5q2 -25 20.5 -42.5t54.5 -17.5q37 0 55.5 17t20.5 43q1 15 1.5 34.5t0.5 40.5t-0.5 40.5t-1.5 34.5q-2 29 -20.5 44.5t-55.5 15.5zM336 716q8 0 14 -6t6 -14v-100q0 -8 -6 -14t-14 -6h-100q-8 0 -14 6t-6 14v97
q0 20 6.5 37.5t15.5 31.5l34 54q5 7 12 13.5t22 6.5h10q15 0 21.5 -12t-0.5 -26l-34 -69q-3 -5 0.5 -9t8.5 -4h24z" />
    <glyph glyph-name="Hcircumflex" unicode="&#x124;" 
d="M189 430q0 -10 10 -10h152q10 0 10 10v250q0 8 6 14t14 6h100q8 0 14 -6t6 -14v-660q0 -8 -6 -14t-14 -6h-100q-8 0 -14 6t-6 14v250q0 10 -10 10h-152q-10 0 -10 -10v-250q0 -8 -8.5 -14t-16.5 -6h-95q-8 0 -14 6t-6 14v660q0 8 6 14t14 6h100q8 0 14 -6t6 -14v-250z
M235 766q-4 -5 -12 -10.5t-19 -5.5h-95q-13 0 -14.5 10t3.5 15l119 123q5 5 10.5 8.5t19.5 3.5h62q13 0 18.5 -3.5t10.5 -8.5l119 -123q5 -5 3 -15t-16 -10h-94q-11 0 -19 5.5t-12 10.5l-35 44q-7 10 -14 0z" />
    <glyph glyph-name="hcircumflex" unicode="&#x125;" 
d="M95 0q-8 0 -14 6t-6 14v670q0 8 6 14t14 6h90q8 0 14 -6t6 -14v-170q0 -13 8 -19.5t22 -1.5q11 4 24 8t36 4q39 0 74 -14.5t60.5 -39.5t40.5 -59t15 -73v-305q0 -8 -6 -14t-14 -6h-90q-8 0 -14 6t-6 14v305q0 25 -19.5 42.5t-55.5 17.5t-55.5 -17.5t-19.5 -42.5v-305
q0 -8 -6 -14t-14 -6h-90zM225 766q-4 -5 -12 -10.5t-19 -5.5h-95q-13 0 -14.5 10t3.5 15l119 123q5 5 10.5 8.5t19.5 3.5h62q13 0 18.5 -3.5t10.5 -8.5l119 -123q5 -5 3 -15t-16 -10h-94q-11 0 -19 5.5t-12 10.5l-35 44q-7 10 -14 0z" />
    <glyph glyph-name="Hbar" unicode="&#x126;" 
d="M189 620q0 -10 10 -10h152q10 0 10 10v60q0 8 6 14t14 6h100q8 0 14 -6t6 -14v-660q0 -8 -6 -14t-14 -6h-100q-8 0 -14 6t-6 14v250q0 10 -10 10h-152q-10 0 -10 -10v-250q0 -8 -8.5 -14t-16.5 -6h-95q-8 0 -14 6t-6 14v660q0 8 6 14t14 6h100q8 0 14 -6t6 -14v-60z
M189 420q0 -10 10 -10h152q10 0 10 10v70q0 10 -10 10h-152q-10 0 -10 -10v-70z" />
    <glyph glyph-name="hbar" unicode="&#x127;" 
d="M206 520q0 -13 8 -19.5t22 -1.5q11 4 24 8t36 4q39 0 74 -14.5t60.5 -39.5t40.5 -59t15 -73v-305q0 -8 -6 -14t-14 -6h-90q-8 0 -14 6t-6 14v305q0 25 -19.5 42.5t-55.5 17.5t-55.5 -17.5t-19.5 -42.5v-305q0 -8 -6 -14t-14 -6h-90q-8 0 -14 6t-6 14v527q0 10 -10 10h-25
q-8 0 -14 6t-6 14v50q0 8 6 14t14 6h25q10 0 10 10v33q0 8 6 14t14 6h90q8 0 14 -6t6 -14v-33q0 -10 10 -10h60q8 0 14 -6t6 -14v-50q0 -8 -6 -14t-14 -6h-60q-10 0 -10 -10v-27z" />
    <glyph glyph-name="Itilde" unicode="&#x128;" 
d="M205 555q0 10 -10 10h-100q-8 0 -14 6t-6 14v95q0 8 6 14t14 6h360q8 0 14 -6t6 -14v-95q0 -8 -6 -14t-14 -6h-100q-10 0 -10 -10v-410q0 -10 10 -10h110q8 0 14 -6t6 -14v-95q0 -8 -6 -14t-14 -6h-380q-8 0 -14 6t-6 14v95q0 8 6 14t14 6h110q10 0 10 10v410zM367 864
q19 0 29.5 6.5t16.5 14.5t15.5 4t9.5 -18v-60q0 -20 -20.5 -35.5t-50.5 -15.5q-24 0 -45.5 4t-43 8.5t-44 8.5t-47.5 4q-17 0 -27.5 -5.5t-18.5 -15.5q-6 -7 -15.5 -3.5t-9.5 17.5v60q0 20 20.5 35.5t50.5 15.5q24 0 45.5 -4t43 -8.5t43.5 -8.5t48 -4z" />
    <glyph glyph-name="itilde" unicode="&#x129;" 
d="M365 684q19 0 29.5 6.5t16.5 14.5t15.5 4t9.5 -18v-60q0 -20 -20.5 -35.5t-50.5 -15.5q-24 0 -45.5 4t-43 8.5t-44 8.5t-47.5 4q-17 0 -27.5 -5.5t-18.5 -15.5q-6 -7 -15.5 -3.5t-9.5 17.5v60q0 20 20.5 35.5t50.5 15.5q24 0 45.5 -4t43 -8.5t43.5 -8.5t48 -4zM120 373
q-8 0 -14 6t-6 14v87q0 8 6 14t14 6h224q7 0 11.5 -5t4.5 -11v-344q0 -10 10 -10h110q8 0 14 -6t6 -14v-90q0 -8 -6 -14t-14 -6h-370q-8 0 -14 6t-6 14v90q0 8 6 14t14 6h110q10 0 10 10v223q0 10 -10 10h-100z" />
    <glyph glyph-name="Imacron" unicode="&#x12a;" 
d="M205 555q0 10 -10 10h-100q-8 0 -14 6t-6 14v95q0 8 6 14t14 6h360q8 0 14 -6t6 -14v-95q0 -8 -6 -14t-14 -6h-100q-10 0 -10 -10v-410q0 -10 10 -10h110q8 0 14 -6t6 -14v-95q0 -8 -6 -14t-14 -6h-380q-8 0 -14 6t-6 14v95q0 8 6 14t14 6h110q10 0 10 10v410zM144 760
q-8 0 -14 6t-6 14v58q0 8 6 14t14 6h262q8 0 14 -6t6 -14v-58q0 -8 -6 -14t-14 -6h-262z" />
    <glyph glyph-name="imacron" unicode="&#x12b;" 
d="M144 596q-8 0 -14 6t-6 14v58q0 8 6 14t14 6h262q8 0 14 -6t6 -14v-58q0 -8 -6 -14t-14 -6h-262zM120 373q-8 0 -14 6t-6 14v87q0 8 6 14t14 6h224q7 0 11.5 -5t4.5 -11v-344q0 -10 10 -10h110q8 0 14 -6t6 -14v-90q0 -8 -6 -14t-14 -6h-370q-8 0 -14 6t-6 14v90
q0 8 6 14t14 6h110q10 0 10 10v223q0 10 -10 10h-100z" />
    <glyph glyph-name="Ibreve" unicode="&#x12c;" 
d="M205 555q0 10 -10 10h-100q-8 0 -14 6t-6 14v95q0 8 6 14t14 6h360q8 0 14 -6t6 -14v-95q0 -8 -6 -14t-14 -6h-100q-10 0 -10 -10v-410q0 -10 10 -10h110q8 0 14 -6t6 -14v-95q0 -8 -6 -14t-14 -6h-380q-8 0 -14 6t-6 14v95q0 8 6 14t14 6h110q10 0 10 10v410zM335 886
q0 7 4.5 12t12.5 5h63q7 0 12 -5t5 -12q0 -29 -11 -55.5t-31.5 -46.5t-49.5 -32t-65 -12t-65 12t-50 32t-32 46.5t-11 55.5q0 7 5 12t12 5h63q8 0 12.5 -5t4.5 -12q0 -23 19 -39.5t42 -16.5t41.5 16.5t18.5 39.5z" />
    <glyph glyph-name="ibreve" unicode="&#x12d;" 
d="M335 713q0 7 4.5 12t12.5 5h63q7 0 12 -5t5 -12q0 -29 -11 -55.5t-31.5 -46.5t-49.5 -32t-65 -12t-65 12t-50 32t-32 46.5t-11 55.5q0 7 5 12t12 5h63q8 0 12.5 -5t4.5 -12q0 -23 19 -39.5t42 -16.5t41.5 16.5t18.5 39.5zM120 373q-8 0 -14 6t-6 14v87q0 8 6 14t14 6h224
q7 0 11.5 -5t4.5 -11v-344q0 -10 10 -10h110q8 0 14 -6t6 -14v-90q0 -8 -6 -14t-14 -6h-370q-8 0 -14 6t-6 14v90q0 8 6 14t14 6h110q10 0 10 10v223q0 10 -10 10h-100z" />
    <glyph glyph-name="Iogonek" unicode="&#x12e;" 
d="M239 -220q-38 0 -69.5 9.5t-55 29t-36.5 50t-13 71.5v175q0 8 6 14t14 6h110q10 0 10 10v410q0 10 -10 10h-100q-8 0 -14 6t-6 14v95q0 8 6 14t14 6h360q8 0 14 -6t6 -14v-95q0 -8 -6 -14t-14 -6h-100q-10 0 -10 -10v-410q0 -10 10 -10h110q8 0 14 -6t6 -14v-95
q0 -8 -6 -14t-14 -6h-286v-60q0 -25 17.5 -42.5t42.5 -17.5h94q8 0 14 -6t6 -14v-60q0 -8 -6 -14t-14 -6h-94z" />
    <glyph glyph-name="iogonek" unicode="&#x12f;" 
d="M366 586q0 -16 -16 -16h-108q-16 0 -16 16v108q0 6 4.5 11t11.5 5h108q7 0 11.5 -5t4.5 -11v-108zM204 -60q0 -25 17.5 -42.5t42.5 -17.5h94q8 0 14 -6t6 -14v-60q0 -8 -6 -14t-14 -6h-94q-38 0 -69.5 9.5t-55 29t-36.5 50t-13 71.5v170q0 8 6 14t14 6h110q10 0 10 10
v223q0 10 -10 10h-100q-8 0 -14 6t-6 14v87q0 8 6 14t14 6h224q7 0 11.5 -5t4.5 -11v-344q0 -10 10 -10h110q8 0 14 -6t6 -14v-90q0 -8 -6 -14t-14 -6h-276v-60z" />
    <glyph glyph-name="Idotaccent" unicode="&#x130;" 
d="M205 555q0 10 -10 10h-100q-8 0 -14 6t-6 14v95q0 8 6 14t14 6h360q8 0 14 -6t6 -14v-95q0 -8 -6 -14t-14 -6h-100q-10 0 -10 -10v-410q0 -10 10 -10h110q8 0 14 -6t6 -14v-95q0 -8 -6 -14t-14 -6h-380q-8 0 -14 6t-6 14v95q0 8 6 14t14 6h110q10 0 10 10v410zM346 766
q0 -16 -16 -16h-108q-16 0 -16 16v108q0 6 4.5 11t11.5 5h108q7 0 11.5 -5t4.5 -11v-108z" />
    <glyph glyph-name="dotlessi" unicode="&#x131;" 
d="M120 373q-8 0 -14 6t-6 14v87q0 8 6 14t14 6h224q7 0 11.5 -5t4.5 -11v-344q0 -10 10 -10h110q8 0 14 -6t6 -14v-90q0 -8 -6 -14t-14 -6h-370q-8 0 -14 6t-6 14v90q0 8 6 14t14 6h110q10 0 10 10v223q0 10 -10 10h-100z" />
    <glyph glyph-name="Jcircumflex" unicode="&#x134;" 
d="M164 211q0 -34 24.5 -57.5t66.5 -23.5q41 0 65.5 24.5t24.5 66.5v459q0 8 6 14t14 6h101q8 0 14 -6t6 -14v-469q0 -46 -16.5 -86.5t-46.5 -70.5t-73 -47.5t-95 -17.5q-50 0 -92 17.5t-73.5 47.5t-49 70.5t-17.5 86.5v28q0 8 6 14t14 6h101q8 0 14 -6t6 -14v-28zM255 766
q-4 -5 -12 -10.5t-19 -5.5h-95q-13 0 -14.5 10t3.5 15l119 123q5 5 10.5 8.5t19.5 3.5h62q13 0 18.5 -3.5t10.5 -8.5l119 -123q5 -5 3 -15t-16 -10h-94q-11 0 -19 5.5t-12 10.5l-35 44q-7 10 -14 0z" />
    <glyph glyph-name="jcircumflex" unicode="&#x135;" 
d="M432 -32q0 -39 -15 -72t-41 -56.5t-60.5 -37t-73.5 -13.5t-73.5 13.5t-60.5 38t-41 57.5t-15 72q0 8 6 14t14 6h90q8 0 14 -6t6 -14q0 -25 17.5 -38t42.5 -13t42.5 13t17.5 38v391q0 10 -10 10h-120q-8 0 -14 6t-6 14v89q0 8 6 14t14 6h244q7 0 11.5 -5t4.5 -11v-516z
M252 586q-4 -5 -12 -10.5t-19 -5.5h-95q-13 0 -14.5 10t3.5 15l119 123q5 5 10.5 8.5t19.5 3.5h62q13 0 18.5 -3.5t10.5 -8.5l119 -123q5 -5 3 -15t-16 -10h-94q-11 0 -19 5.5t-12 10.5l-35 44q-7 10 -14 0z" />
    <glyph glyph-name="Kcommaaccent" unicode="&#x136;" 
d="M371 690q2 3 6.5 6.5t15.5 3.5h101q14 0 19.5 -12.5t-2.5 -23.5l-187 -276q-7 -10 -6.5 -17t6.5 -16l205 -317q7 -11 1.5 -24.5t-22.5 -13.5h-108q-11 0 -16 4t-7 8l-171 273q-2 3 -6 2.5t-4 -5.5v-262q0 -8 -6 -14t-14 -6h-99q-8 0 -14 6t-6 14v660q0 8 6 14t14 6h99
q8 0 14 -6t6 -14v-230q0 -5 4 -5.5t6 2.5zM225 -185q-8 0 -14 6t-6 14v100q0 8 6 14t14 6h100q8 0 14 -6t6 -14v-97q0 -20 -6.5 -37.5t-15.5 -31.5l-34 -54q-5 -7 -12 -13.5t-22 -6.5h-10q-15 0 -21.5 12t0.5 26l34 69q3 5 -0.5 9t-8.5 4h-24z" />
    <glyph glyph-name="kcommaaccent" unicode="&#x137;" 
d="M227 188q-2 3 -6 2.5t-4 -5.5v-165q0 -8 -6 -14t-14 -6h-90q-8 0 -14 6t-6 14v670q0 8 6 14t14 6h90q8 0 14 -6t6 -14v-349q0 -5 4 -5.5t6 2.5l146 149q4 4 9 8.5t16 4.5h99q16 0 20 -12.5t-4 -20.5l-179 -185q-14 -14 1 -30l193 -219q9 -10 3.5 -21.5t-19.5 -11.5h-104
q-11 0 -16.5 5.5l-9.5 9.5zM225 -185q-8 0 -14 6t-6 14v100q0 8 6 14t14 6h100q8 0 14 -6t6 -14v-97q0 -20 -6.5 -37.5t-15.5 -31.5l-34 -54q-5 -7 -12 -13.5t-22 -6.5h-10q-15 0 -21.5 12t0.5 26l34 69q3 5 -0.5 9t-8.5 4h-24z" />
    <glyph glyph-name="kgreenlandic" unicode="&#x138;" 
d="M227 188q-2 3 -6 2.5t-4 -5.5v-165q0 -8 -6 -14t-14 -6h-90q-8 0 -14 6t-6 14v460q0 8 6 14t14 6h90q8 0 14 -6t6 -14v-139q0 -5 4 -5.5t6 2.5l146 149q4 4 9 8.5t16 4.5h99q16 0 20 -12.5t-4 -20.5l-179 -185q-14 -14 1 -30l193 -219q9 -10 3.5 -21.5t-19.5 -11.5h-104
q-11 0 -16.5 5.5l-9.5 9.5z" />
    <glyph glyph-name="Lacute" unicode="&#x139;" 
d="M235 150q0 -10 10 -10h250q8 0 14 -6t6 -14v-100q0 -8 -6 -14t-14 -6h-380q-8 0 -14 6t-6 14v660q0 8 6 14t14 6h100q8 0 14 -6t6 -14v-530zM357 910q14 0 17 -9t-5 -18l-115 -121q-5 -5 -10.5 -8.5t-19.5 -3.5h-69q-10 0 -16 9t3 21l82 114q4 5 9.5 10.5t16.5 5.5h107z
" />
    <glyph glyph-name="lacute" unicode="&#x13a;" 
d="M110 583q-8 0 -14 6t-6 14v87q0 8 6 14t14 6h224q7 0 11.5 -5t4.5 -11v-554q0 -10 10 -10h120q8 0 14 -6t6 -14v-90q0 -8 -6 -14t-14 -6h-380q-8 0 -14 6t-6 14v90q0 8 6 14t14 6h110q10 0 10 10v433q0 10 -10 10h-100zM427 910q14 0 17 -9t-5 -18l-115 -121
q-5 -5 -10.5 -8.5t-19.5 -3.5h-69q-10 0 -16 9t3 21l82 114q4 5 9.5 10.5t16.5 5.5h107z" />
    <glyph glyph-name="Lcommaaccent" unicode="&#x13b;" 
d="M235 150q0 -10 10 -10h250q8 0 14 -6t6 -14v-100q0 -8 -6 -14t-14 -6h-380q-8 0 -14 6t-6 14v660q0 8 6 14t14 6h100q8 0 14 -6t6 -14v-530zM225 -185q-8 0 -14 6t-6 14v100q0 8 6 14t14 6h100q8 0 14 -6t6 -14v-97q0 -20 -6.5 -37.5t-15.5 -31.5l-34 -54
q-5 -7 -12 -13.5t-22 -6.5h-10q-15 0 -21.5 12t0.5 26l34 69q3 5 -0.5 9t-8.5 4h-24z" />
    <glyph glyph-name="lcommaaccent" unicode="&#x13c;" 
d="M110 583q-8 0 -14 6t-6 14v87q0 8 6 14t14 6h224q7 0 11.5 -5t4.5 -11v-554q0 -10 10 -10h120q8 0 14 -6t6 -14v-90q0 -8 -6 -14t-14 -6h-380q-8 0 -14 6t-6 14v90q0 8 6 14t14 6h110q10 0 10 10v433q0 10 -10 10h-100zM225 -185q-8 0 -14 6t-6 14v100q0 8 6 14t14 6h100
q8 0 14 -6t6 -14v-97q0 -20 -6.5 -37.5t-15.5 -31.5l-34 -54q-5 -7 -12 -13.5t-22 -6.5h-10q-15 0 -21.5 12t0.5 26l34 69q3 5 -0.5 9t-8.5 4h-24z" />
    <glyph glyph-name="Lcaron" unicode="&#x13d;" 
d="M235 150q0 -10 10 -10h250q8 0 14 -6t6 -14v-100q0 -8 -6 -14t-14 -6h-380q-8 0 -14 6t-6 14v660q0 8 6 14t14 6h100q8 0 14 -6t6 -14v-530zM345 560q-8 0 -14 6t-6 14v100q0 8 6 14t14 6h100q8 0 14 -6t6 -14v-97q0 -20 -6.5 -37.5t-15.5 -31.5l-34 -54q-5 -7 -12 -13.5
t-22 -6.5h-10q-15 0 -21.5 12t0.5 26l34 69q3 5 -0.5 9t-8.5 4h-24z" />
    <glyph glyph-name="lcaron" unicode="&#x13e;" 
d="M110 583q-8 0 -14 6t-6 14v87q0 8 6 14t14 6h224q7 0 11.5 -5t4.5 -11v-554q0 -10 10 -10h120q8 0 14 -6t6 -14v-90q0 -8 -6 -14t-14 -6h-380q-8 0 -14 6t-6 14v90q0 8 6 14t14 6h110q10 0 10 10v433q0 10 -10 10h-100zM429 560q-8 0 -14 6t-6 14v100q0 8 6 14t14 6h100
q8 0 14 -6t6 -14v-97q0 -20 -6.5 -37.5t-15.5 -31.5l-34 -54q-5 -7 -12 -13.5t-22 -6.5h-10q-15 0 -21.5 12t0.5 26l34 69q3 5 -0.5 9t-8.5 4h-24z" />
    <glyph glyph-name="Ldot" unicode="&#x13f;" 
d="M235 150q0 -10 10 -10h250q8 0 14 -6t6 -14v-100q0 -8 -6 -14t-14 -6h-380q-8 0 -14 6t-6 14v660q0 8 6 14t14 6h100q8 0 14 -6t6 -14v-530zM465 256q0 -16 -16 -16h-108q-16 0 -16 16v108q0 6 4.5 11t11.5 5h108q7 0 11.5 -5t4.5 -11v-108z" />
    <glyph glyph-name="ldot" unicode="&#x140;" 
d="M110 583q-8 0 -14 6t-6 14v87q0 8 6 14t14 6h224q7 0 11.5 -5t4.5 -11v-554q0 -10 10 -10h120q8 0 14 -6t6 -14v-90q0 -8 -6 -14t-14 -6h-380q-8 0 -14 6t-6 14v90q0 8 6 14t14 6h110q10 0 10 10v433q0 10 -10 10h-100zM535 256q0 -16 -16 -16h-108q-16 0 -16 16v108
q0 6 4.5 11t11.5 5h108q7 0 11.5 -5t4.5 -11v-108z" />
    <glyph glyph-name="Lslash" unicode="&#x141;" 
d="M235 155q0 -15 15 -15h245q8 0 14 -6t6 -14v-100q0 -8 -6 -14t-14 -6h-380q-8 0 -14 6t-6 14v172q0 4 -2.5 5t-4.5 -1l-29 -16q-10 -5 -19 -2.5t-9 17.5v79q0 10 4 15.5t15 12.5l39 23q6 4 6 10v345q0 8 6 14t14 6h100q8 0 14 -6t6 -14v-261q0 -2 2.5 -4.5t7.5 0.5l97 57
q11 7 20.5 4t9.5 -16v-79q0 -13 -5 -19.5t-16 -13.5l-109 -63q-7 -4 -7 -10v-120z" />
    <glyph glyph-name="lslash" unicode="&#x142;" 
d="M220 573q0 10 -10 10h-100q-8 0 -14 6t-6 14v87q0 8 6 14t14 6h224q7 0 11.5 -5t4.5 -11v-255q0 -11 10 -4l51 34q11 7 20.5 1.5t9.5 -18.5v-74q0 -13 -5 -19.5t-16 -13.5l-63 -40q-7 -4 -7 -12v-153q0 -10 10 -10h120q8 0 14 -6t6 -14v-90q0 -8 -6 -14t-14 -6h-380
q-8 0 -14 6t-6 14v90q0 8 6 14t14 6h110q10 0 10 10v72q0 4 -2.5 5t-4.5 -1l-23 -13q-10 -6 -22 -0.5t-12 20.5v68q0 13 7.5 20.5t18.5 14.5l32 19q6 2 6 10v218z" />
    <glyph glyph-name="Nacute" unicode="&#x143;" 
d="M500 20q0 -8 -6 -14t-14 -6h-118q-13 0 -19 5.5t-8 11.5l-136 351q-2 5 -5.5 4t-3.5 -6v-346q0 -8 -6 -14t-14 -6h-100q-8 0 -14 6t-6 14v660q0 8 6 14t14 6h119q11 0 17 -5.5t8 -12.5l137 -380q2 -5 5.5 -4t3.5 6v376q0 8 6 14t14 6h100q8 0 14 -6t6 -14v-660zM427 910
q14 0 17 -9t-5 -18l-115 -121q-5 -5 -10.5 -8.5t-19.5 -3.5h-69q-10 0 -16 9t3 21l82 114q4 5 9.5 10.5t16.5 5.5h107z" />
    <glyph glyph-name="nacute" unicode="&#x144;" 
d="M185 476q11 0 21 5.5t22.5 12t28 12t38.5 5.5q39 0 73 -14.5t59 -39.5t39 -59t14 -73v-305q0 -8 -6 -14t-14 -6h-90q-8 0 -14 6t-6 14v306q0 25 -19.5 42t-55.5 17q-35 0 -55 -16t-20 -39v-310q0 -8 -6 -14t-14 -6h-90q-8 0 -14 6t-6 14v460q0 8 6 14t14 6h50
q9 0 14 -3.5t9 -8.5q5 -5 9.5 -8.5t12.5 -3.5zM417 730q14 0 17 -9t-5 -18l-115 -121q-5 -5 -10.5 -8.5t-19.5 -3.5h-69q-10 0 -16 9t3 21l82 114q4 5 9.5 10.5t16.5 5.5h107z" />
    <glyph glyph-name="Ncommaaccent" unicode="&#x145;" 
d="M500 20q0 -8 -6 -14t-14 -6h-118q-13 0 -19 5.5t-8 11.5l-136 351q-2 5 -5.5 4t-3.5 -6v-346q0 -8 -6 -14t-14 -6h-100q-8 0 -14 6t-6 14v660q0 8 6 14t14 6h119q11 0 17 -5.5t8 -12.5l137 -380q2 -5 5.5 -4t3.5 6v376q0 8 6 14t14 6h100q8 0 14 -6t6 -14v-660zM225 -185
q-8 0 -14 6t-6 14v100q0 8 6 14t14 6h100q8 0 14 -6t6 -14v-97q0 -20 -6.5 -37.5t-15.5 -31.5l-34 -54q-5 -7 -12 -13.5t-22 -6.5h-10q-15 0 -21.5 12t0.5 26l34 69q3 5 -0.5 9t-8.5 4h-24z" />
    <glyph glyph-name="ncommaaccent" unicode="&#x146;" 
d="M185 476q11 0 21 5.5t22.5 12t28 12t38.5 5.5q39 0 73 -14.5t59 -39.5t39 -59t14 -73v-305q0 -8 -6 -14t-14 -6h-90q-8 0 -14 6t-6 14v306q0 25 -19.5 42t-55.5 17q-35 0 -55 -16t-20 -39v-310q0 -8 -6 -14t-14 -6h-90q-8 0 -14 6t-6 14v460q0 8 6 14t14 6h50
q9 0 14 -3.5t9 -8.5q5 -5 9.5 -8.5t12.5 -3.5zM225 -185q-8 0 -14 6t-6 14v100q0 8 6 14t14 6h100q8 0 14 -6t6 -14v-97q0 -20 -6.5 -37.5t-15.5 -31.5l-34 -54q-5 -7 -12 -13.5t-22 -6.5h-10q-15 0 -21.5 12t0.5 26l34 69q3 5 -0.5 9t-8.5 4h-24z" />
    <glyph glyph-name="Ncaron" unicode="&#x147;" 
d="M500 20q0 -8 -6 -14t-14 -6h-118q-13 0 -19 5.5t-8 11.5l-136 351q-2 5 -5.5 4t-3.5 -6v-346q0 -8 -6 -14t-14 -6h-100q-8 0 -14 6t-6 14v660q0 8 6 14t14 6h119q11 0 17 -5.5t8 -12.5l137 -380q2 -5 5.5 -4t3.5 6v376q0 8 6 14t14 6h100q8 0 14 -6t6 -14v-660zM267 850
q7 -11 14 0l35 44q4 5 12 10.5t19 5.5h94q14 0 16 -10t-3 -15l-119 -123q-5 -5 -10.5 -8.5t-18.5 -3.5h-62q-14 0 -19.5 3.5t-10.5 8.5l-119 123q-5 5 -3.5 15t14.5 10h95q11 0 19 -5.5t12 -10.5z" />
    <glyph glyph-name="ncaron" unicode="&#x148;" 
d="M185 476q11 0 21 5.5t22.5 12t28 12t38.5 5.5q39 0 73 -14.5t59 -39.5t39 -59t14 -73v-305q0 -8 -6 -14t-14 -6h-90q-8 0 -14 6t-6 14v306q0 25 -19.5 42t-55.5 17q-35 0 -55 -16t-20 -39v-310q0 -8 -6 -14t-14 -6h-90q-8 0 -14 6t-6 14v460q0 8 6 14t14 6h50
q9 0 14 -3.5t9 -8.5q5 -5 9.5 -8.5t12.5 -3.5zM267 670q7 -11 14 0l35 44q4 5 12 10.5t19 5.5h94q14 0 16 -10t-3 -15l-119 -123q-5 -5 -10.5 -8.5t-18.5 -3.5h-62q-14 0 -19.5 3.5t-10.5 8.5l-119 123q-5 5 -3.5 15t14.5 10h95q11 0 19 -5.5t12 -10.5z" />
    <glyph glyph-name="Eng" unicode="&#x14a;" 
d="M199 378q-2 5 -5.5 4t-3.5 -6v-356q0 -8 -6 -14t-14 -6h-100q-8 0 -14 6t-6 14v660q0 8 6 14t14 6h119q11 0 17 -5.5t8 -12.5l137 -340q2 -5 5.5 -4t3.5 6v336q0 8 6 14t14 6h100q8 0 14 -6t6 -14v-669q0 -46 -16.5 -86t-46.5 -70t-73 -47.5t-95 -17.5q-8 0 -14 6t-6 14
v100q0 8 6 14t14 6q35 0 61.5 18.5t26.5 51.5v30z" />
    <glyph glyph-name="eng" unicode="&#x14b;" 
d="M283 -96q28 0 47.5 16.5t19.5 49.5v356q0 25 -19.5 42t-55.5 17q-35 0 -55 -16t-20 -39v-310q0 -8 -6 -14t-14 -6h-90q-8 0 -14 6t-6 14v460q0 8 6 14t14 6h50q9 0 13.5 -4t9 -8.5t9 -8t13.5 -3.5q11 0 21 5.5t22.5 12t28 12t38.5 5.5q39 0 73 -14.5t59 -39.5t39 -59
t14 -73v-355q0 -38 -15 -71.5t-41 -59t-62.5 -40t-78.5 -14.5q-8 0 -14 6t-6 14v79q0 8 6 14t14 6z" />
    <glyph glyph-name="Omacron" unicode="&#x14c;" 
d="M275 570q-46 0 -69.5 -23.5t-27.5 -56.5q-4 -32 -6 -67.5t-2 -72.5t2 -73t6 -67q4 -33 27.5 -56.5t69.5 -23.5t69.5 23.5t27.5 56.5q4 31 5.5 67t1.5 73t-1.5 72.5t-5.5 67.5q-4 33 -27.5 56.5t-69.5 23.5zM275 711q52 0 93.5 -17.5t72 -48t49 -70.5t23.5 -85
q4 -32 5.5 -67.5t1.5 -72.5t-1.5 -73t-5.5 -67q-5 -45 -23.5 -85t-49 -70.5t-72 -48t-93.5 -17.5t-93.5 17.5t-72 48t-49 70.5t-23.5 85q-4 31 -6 67t-2 73t2 72.5t6 67.5q5 45 23.5 85t49 70.5t72 48t93.5 17.5zM144 760q-8 0 -14 6t-6 14v58q0 8 6 14t14 6h262q8 0 14 -6
t6 -14v-58q0 -8 -6 -14t-14 -6h-262z" />
    <glyph glyph-name="omacron" unicode="&#x14d;" 
d="M274 511q46 0 82.5 -14.5t62.5 -39.5t42 -59t21 -73q2 -15 3 -34.5t1 -40.5t-1 -40.5t-3 -34.5q-5 -39 -20.5 -73t-42 -59t-62.5 -39.5t-82 -14.5t-82.5 14.5t-63 39.5t-42 59t-20.5 73q-2 15 -3 34.5t-1 40.5t1 40.5t3 34.5q5 39 20.5 73t42 59t62.5 39.5t82 14.5z
M274 119q38 0 56 15.5t22 40.5q2 15 3 34.5t1 40.5t-1 40.5t-3 34.5q-4 25 -22 40.5t-56 15.5t-55 -13.5t-22 -42.5q-2 -15 -3.5 -34.5t-1.5 -40.5t1.5 -40.5t3.5 -34.5q4 -26 21.5 -41t55.5 -15zM144 596q-8 0 -14 6t-6 14v58q0 8 6 14t14 6h262q8 0 14 -6t6 -14v-58
q0 -8 -6 -14t-14 -6h-262z" />
    <glyph glyph-name="Obreve" unicode="&#x14e;" 
d="M275 570q-46 0 -69.5 -23.5t-27.5 -56.5q-4 -32 -6 -67.5t-2 -72.5t2 -73t6 -67q4 -33 27.5 -56.5t69.5 -23.5t69.5 23.5t27.5 56.5q4 31 5.5 67t1.5 73t-1.5 72.5t-5.5 67.5q-4 33 -27.5 56.5t-69.5 23.5zM275 711q52 0 93.5 -17.5t72 -48t49 -70.5t23.5 -85
q4 -32 5.5 -67.5t1.5 -72.5t-1.5 -73t-5.5 -67q-5 -45 -23.5 -85t-49 -70.5t-72 -48t-93.5 -17.5t-93.5 17.5t-72 48t-49 70.5t-23.5 85q-4 31 -6 67t-2 73t2 72.5t6 67.5q5 45 23.5 85t49 70.5t72 48t93.5 17.5zM335 886q0 7 4.5 12t12.5 5h63q7 0 12 -5t5 -12
q0 -29 -11 -55.5t-31.5 -46.5t-49.5 -32t-65 -12t-65 12t-50 32t-32 46.5t-11 55.5q0 7 5 12t12 5h63q8 0 12.5 -5t4.5 -12q0 -23 19 -39.5t42 -16.5t41.5 16.5t18.5 39.5z" />
    <glyph glyph-name="obreve" unicode="&#x14f;" 
d="M274 511q46 0 82.5 -14.5t62.5 -39.5t42 -59t21 -73q2 -15 3 -34.5t1 -40.5t-1 -40.5t-3 -34.5q-5 -39 -20.5 -73t-42 -59t-62.5 -39.5t-82 -14.5t-82.5 14.5t-63 39.5t-42 59t-20.5 73q-2 15 -3 34.5t-1 40.5t1 40.5t3 34.5q5 39 20.5 73t42 59t62.5 39.5t82 14.5z
M274 119q38 0 56 15.5t22 40.5q2 15 3 34.5t1 40.5t-1 40.5t-3 34.5q-4 25 -22 40.5t-56 15.5t-55 -13.5t-22 -42.5q-2 -15 -3.5 -34.5t-1.5 -40.5t1.5 -40.5t3.5 -34.5q4 -26 21.5 -41t55.5 -15zM335 713q0 7 4.5 12t12.5 5h63q7 0 12 -5t5 -12q0 -29 -11 -55.5
t-31.5 -46.5t-49.5 -32t-65 -12t-65 12t-50 32t-32 46.5t-11 55.5q0 7 5 12t12 5h63q8 0 12.5 -5t4.5 -12q0 -23 19 -39.5t42 -16.5t41.5 16.5t18.5 39.5z" />
    <glyph glyph-name="Ohungarumlaut" unicode="&#x150;" 
d="M275 570q-46 0 -69.5 -23.5t-27.5 -56.5q-4 -32 -6 -67.5t-2 -72.5t2 -73t6 -67q4 -33 27.5 -56.5t69.5 -23.5t69.5 23.5t27.5 56.5q4 31 5.5 67t1.5 73t-1.5 72.5t-5.5 67.5q-4 33 -27.5 56.5t-69.5 23.5zM275 711q52 0 93.5 -17.5t72 -48t49 -70.5t23.5 -85
q4 -32 5.5 -67.5t1.5 -72.5t-1.5 -73t-5.5 -67q-5 -45 -23.5 -85t-49 -70.5t-72 -48t-93.5 -17.5t-93.5 17.5t-72 48t-49 70.5t-23.5 85q-4 31 -6 67t-2 73t2 72.5t6 67.5q5 45 23.5 85t49 70.5t72 48t93.5 17.5zM334 910q14 0 17 -9t-5 -18l-115 -121q-5 -5 -10.5 -8.5
t-19.5 -3.5h-69q-10 0 -16 9t3 21l82 114q4 5 9.5 10.5t16.5 5.5h107zM541 910q14 0 17 -9t-5 -18l-115 -121q-5 -5 -10.5 -8.5t-19.5 -3.5h-69q-10 0 -16 9t3 21l82 114q4 5 9.5 10.5t16.5 5.5h107z" />
    <glyph glyph-name="ohungarumlaut" unicode="&#x151;" 
d="M274 511q46 0 82.5 -14.5t62.5 -39.5t42 -59t21 -73q2 -15 3 -34.5t1 -40.5t-1 -40.5t-3 -34.5q-5 -39 -20.5 -73t-42 -59t-62.5 -39.5t-82 -14.5t-82.5 14.5t-63 39.5t-42 59t-20.5 73q-2 15 -3 34.5t-1 40.5t1 40.5t3 34.5q5 39 20.5 73t42 59t62.5 39.5t82 14.5z
M274 119q38 0 56 15.5t22 40.5q2 15 3 34.5t1 40.5t-1 40.5t-3 34.5q-4 25 -22 40.5t-56 15.5t-55 -13.5t-22 -42.5q-2 -15 -3.5 -34.5t-1.5 -40.5t1.5 -40.5t3.5 -34.5q4 -26 21.5 -41t55.5 -15zM334 730q14 0 17 -9t-5 -18l-115 -121q-5 -5 -10.5 -8.5t-19.5 -3.5h-69
q-10 0 -16 9t3 21l82 114q4 5 9.5 10.5t16.5 5.5h107zM541 730q14 0 17 -9t-5 -18l-115 -121q-5 -5 -10.5 -8.5t-19.5 -3.5h-69q-10 0 -16 9t3 21l82 114q4 5 9.5 10.5t16.5 5.5h107z" />
    <glyph glyph-name="OE" unicode="&#x152;" 
d="M516 700q8 0 14 -6t6 -14v-100q0 -8 -6 -14t-14 -6h-111q-10 0 -10 -10v-120q0 -10 10 -10h103q8 0 14 -6t6 -14v-100q0 -8 -6 -14t-14 -6h-103q-10 0 -10 -10v-120q0 -10 10 -10h115q8 0 14 -6t6 -14v-100q0 -8 -6 -14t-14 -6h-274q-46 0 -84.5 17.5t-67.5 48
t-47.5 70.5t-23.5 85q-8 63 -8 129t8 129q5 45 23.5 85t47.5 70.5t67.5 48t84.5 17.5h270zM246 140q10 0 10 10v400q0 10 -10 10q-35 0 -56.5 -24t-25.5 -57q-8 -63 -8 -129t8 -129q4 -33 25.5 -57t56.5 -24z" />
    <glyph glyph-name="oe" unicode="&#x153;" 
d="M303 28q-7 8 -17 7.5t-16 -8.5q-14 -17 -35.5 -27.5t-60.5 -10.5q-45 0 -77.5 22.5t-53.5 60t-31 85.5t-10 98q0 49 11 95t33 82t53.5 57.5t73.5 21.5q38 0 59 -11t38 -28q5 -5 15 -6.5t18 5.5q18 17 40 28.5t51 11.5q78 0 116 -67t38 -184v-30q-1 -8 -6.5 -14t-13.5 -6
h-183q-15 0 -15 -15q0 -42 16 -65.5t45 -23.5q42 0 52 46q2 10 9 13.5t14 3.5h63q17 0 17 -20q0 -26 -10 -54t-29 -51.5t-46.5 -39t-62.5 -15.5q-37 0 -60.5 13.5t-34.5 25.5zM325 319q0 -9 10 -9h101q10 0 10 9q0 36 -16 54.5t-42 19.5q-32 0 -47.5 -22.5t-15.5 -51.5z
M112 256q0 -31 2.5 -57t9 -44.5t18.5 -29t31 -10.5t30.5 10.5t18.5 29t9.5 44.5t2.5 57q0 60 -16 92.5t-45 32.5q-27 0 -44 -32.5t-17 -92.5z" />
    <glyph glyph-name="Racute" unicode="&#x154;" 
d="M208 560q-10 0 -10 -10v-120q0 -10 10 -10h90q29 0 49.5 20.5t20.5 49.5t-20.5 49.5t-49.5 20.5h-90zM208 280q-10 0 -10 -10v-250q0 -8 -6 -14t-14 -6h-100q-8 0 -14 6t-6 14v660q0 8 6 14t14 6h220q43 0 81.5 -16.5t67 -45t45 -67t16.5 -81.5q0 -58 -25 -99.5
t-79 -77.5q-11 -8 -11 -15t5 -18l107 -250q5 -11 0.5 -20.5t-19.5 -9.5h-103q-12 0 -18.5 5.5t-10.5 14.5l-102 247q-2 4 -6 8.5t-12 4.5h-26zM397 910q14 0 17 -9t-5 -18l-115 -121q-5 -5 -10.5 -8.5t-19.5 -3.5h-69q-10 0 -16 9t3 21l82 114q4 5 9.5 10.5t16.5 5.5h107z
" />
    <glyph glyph-name="racute" unicode="&#x155;" 
d="M372 336q0 25 -21.5 38t-53.5 13t-56 -14t-24 -46v-307q0 -8 -6 -14t-14 -6h-90q-8 0 -14 6t-6 14v460q0 8 6 14t14 6h50q9 0 14.5 -3.5t10.5 -7.5q5 -5 10 -8.5t13 -3.5q12 0 21 5.5t21 11.5t29.5 11.5t45.5 5.5q39 0 72 -12.5t57 -35.5t37.5 -55.5t13.5 -71.5
q0 -8 -6 -14t-14 -6h-90q-8 0 -14 6t-6 14zM407 730q14 0 17 -9t-5 -18l-115 -121q-5 -5 -10.5 -8.5t-19.5 -3.5h-69q-10 0 -16 9t3 21l82 114q4 5 9.5 10.5t16.5 5.5h107z" />
    <glyph glyph-name="Rcommaaccent" unicode="&#x156;" 
d="M208 560q-10 0 -10 -10v-120q0 -10 10 -10h90q29 0 49.5 20.5t20.5 49.5t-20.5 49.5t-49.5 20.5h-90zM208 280q-10 0 -10 -10v-250q0 -8 -6 -14t-14 -6h-100q-8 0 -14 6t-6 14v660q0 8 6 14t14 6h220q43 0 81.5 -16.5t67 -45t45 -67t16.5 -81.5q0 -58 -25 -99.5
t-79 -77.5q-11 -8 -11 -15t5 -18l107 -250q5 -11 0.5 -20.5t-19.5 -9.5h-103q-12 0 -18.5 5.5t-10.5 14.5l-102 247q-2 4 -6 8.5t-12 4.5h-26zM225 -185q-8 0 -14 6t-6 14v100q0 8 6 14t14 6h100q8 0 14 -6t6 -14v-97q0 -20 -6.5 -37.5t-15.5 -31.5l-34 -54q-5 -7 -12 -13.5
t-22 -6.5h-10q-15 0 -21.5 12t0.5 26l34 69q3 5 -0.5 9t-8.5 4h-24z" />
    <glyph glyph-name="rcommaaccent" unicode="&#x157;" 
d="M372 336q0 25 -21.5 38t-53.5 13t-56 -14t-24 -46v-307q0 -8 -6 -14t-14 -6h-90q-8 0 -14 6t-6 14v460q0 8 6 14t14 6h50q9 0 14.5 -3.5t10.5 -7.5q5 -5 10 -8.5t13 -3.5q12 0 21 5.5t21 11.5t29.5 11.5t45.5 5.5q39 0 72 -12.5t57 -35.5t37.5 -55.5t13.5 -71.5
q0 -8 -6 -14t-14 -6h-90q-8 0 -14 6t-6 14zM99 -185q-8 0 -14 6t-6 14v100q0 8 6 14t14 6h100q8 0 14 -6t6 -14v-97q0 -20 -6.5 -37.5t-15.5 -31.5l-34 -54q-5 -7 -12 -13.5t-22 -6.5h-10q-15 0 -21.5 12t0.5 26l34 69q3 5 -0.5 9t-8.5 4h-24z" />
    <glyph glyph-name="Rcaron" unicode="&#x158;" 
d="M208 560q-10 0 -10 -10v-120q0 -10 10 -10h90q29 0 49.5 20.5t20.5 49.5t-20.5 49.5t-49.5 20.5h-90zM208 280q-10 0 -10 -10v-250q0 -8 -6 -14t-14 -6h-100q-8 0 -14 6t-6 14v660q0 8 6 14t14 6h220q43 0 81.5 -16.5t67 -45t45 -67t16.5 -81.5q0 -58 -25 -99.5
t-79 -77.5q-11 -8 -11 -15t5 -18l107 -250q5 -11 0.5 -20.5t-19.5 -9.5h-103q-12 0 -18.5 5.5t-10.5 14.5l-102 247q-2 4 -6 8.5t-12 4.5h-26zM247 850q7 -11 14 0l35 44q4 5 12 10.5t19 5.5h94q14 0 16 -10t-3 -15l-119 -123q-5 -5 -10.5 -8.5t-18.5 -3.5h-62
q-14 0 -19.5 3.5t-10.5 8.5l-119 123q-5 5 -3.5 15t14.5 10h95q11 0 19 -5.5t12 -10.5z" />
    <glyph glyph-name="rcaron" unicode="&#x159;" 
d="M372 336q0 25 -21.5 38t-53.5 13t-56 -14t-24 -46v-307q0 -8 -6 -14t-14 -6h-90q-8 0 -14 6t-6 14v460q0 8 6 14t14 6h50q9 0 14.5 -3.5t10.5 -7.5q5 -5 10 -8.5t13 -3.5q12 0 21 5.5t21 11.5t29.5 11.5t45.5 5.5q39 0 72 -12.5t57 -35.5t37.5 -55.5t13.5 -71.5
q0 -8 -6 -14t-14 -6h-90q-8 0 -14 6t-6 14zM267 670q7 -11 14 0l35 44q4 5 12 10.5t19 5.5h94q14 0 16 -10t-3 -15l-119 -123q-5 -5 -10.5 -8.5t-18.5 -3.5h-62q-14 0 -19.5 3.5t-10.5 8.5l-119 123q-5 5 -3.5 15t14.5 10h95q11 0 19 -5.5t12 -10.5z" />
    <glyph glyph-name="Sacute" unicode="&#x15a;" 
d="M371 208q0 32 -23.5 49.5t-80.5 30.5q-47 10 -88 26.5t-71 41.5t-47.5 60.5t-17.5 83.5q0 44 17 82.5t48 67t72.5 45t91.5 16.5t92.5 -16.5t73 -45t47.5 -67t17 -82.5v-15q0 -8 -6 -14t-14 -6h-101q-8 0 -14 6t-6 14v15q0 30 -23 52.5t-66 22.5q-42 0 -64.5 -20
t-22.5 -50q0 -29 25 -46.5t64 -25.5q52 -11 96.5 -27.5t76.5 -43t50.5 -64.5t18.5 -90q0 -49 -18 -89t-50.5 -69t-77.5 -45t-98 -16q-52 0 -95.5 17t-75 46.5t-49.5 69.5t-18 86v30q0 8 6 14t14 6h101q8 0 14 -6t6 -14v-30q0 -35 25 -58.5t72 -23.5q45 0 72 23.5t27 58.5z
M427 910q14 0 17 -9t-5 -18l-115 -121q-5 -5 -10.5 -8.5t-19.5 -3.5h-69q-10 0 -16 9t3 21l82 114q4 5 9.5 10.5t16.5 5.5h107z" />
    <glyph glyph-name="sacute" unicode="&#x15b;" 
d="M62 164q0 8 6 14t14 6h76q18 0 23 -6t7 -19q3 -29 28 -40.5t60 -11.5q41 0 66.5 12t25.5 35q0 13 -8 21t-21 13t-29.5 7.5t-33.5 4.5q-31 3 -66 12t-65 27.5t-50 47.5t-20 73q0 33 18 61t46.5 48t64.5 31t72 11q37 0 73 -10t63.5 -29.5t44.5 -48.5t17 -68q0 -14 -6 -19.5
t-14 -5.5h-75q-8 0 -14.5 4.5t-8.5 20.5q-4 25 -28 35.5t-52 10.5q-34 0 -57 -10t-23 -31q0 -11 6.5 -18.5t18 -12t26 -7t29.5 -5.5q33 -6 70 -13.5t68.5 -24t52.5 -46.5t21 -81q0 -37 -17 -67t-46 -51.5t-67.5 -33t-81.5 -11.5q-41 0 -79.5 9.5t-68.5 30.5t-48 54.5
t-18 80.5zM417 730q14 0 17 -9t-5 -18l-115 -121q-5 -5 -10.5 -8.5t-19.5 -3.5h-69q-10 0 -16 9t3 21l82 114q4 5 9.5 10.5t16.5 5.5h107z" />
    <glyph glyph-name="Scircumflex" unicode="&#x15c;" 
d="M371 208q0 32 -23.5 49.5t-80.5 30.5q-47 10 -88 26.5t-71 41.5t-47.5 60.5t-17.5 83.5q0 44 17 82.5t48 67t72.5 45t91.5 16.5t92.5 -16.5t73 -45t47.5 -67t17 -82.5v-15q0 -8 -6 -14t-14 -6h-101q-8 0 -14 6t-6 14v15q0 30 -23 52.5t-66 22.5q-42 0 -64.5 -20
t-22.5 -50q0 -29 25 -46.5t64 -25.5q52 -11 96.5 -27.5t76.5 -43t50.5 -64.5t18.5 -90q0 -49 -18 -89t-50.5 -69t-77.5 -45t-98 -16q-52 0 -95.5 17t-75 46.5t-49.5 69.5t-18 86v30q0 8 6 14t14 6h101q8 0 14 -6t6 -14v-30q0 -35 25 -58.5t72 -23.5q45 0 72 23.5t27 58.5z
M235 766q-4 -5 -12 -10.5t-19 -5.5h-95q-13 0 -14.5 10t3.5 15l119 123q5 5 10.5 8.5t19.5 3.5h62q13 0 18.5 -3.5t10.5 -8.5l119 -123q5 -5 3 -15t-16 -10h-94q-11 0 -19 5.5t-12 10.5l-35 44q-7 10 -14 0z" />
    <glyph glyph-name="scircumflex" unicode="&#x15d;" 
d="M62 164q0 8 6 14t14 6h76q18 0 23 -6t7 -19q3 -29 28 -40.5t60 -11.5q41 0 66.5 12t25.5 35q0 13 -8 21t-21 13t-29.5 7.5t-33.5 4.5q-31 3 -66 12t-65 27.5t-50 47.5t-20 73q0 33 18 61t46.5 48t64.5 31t72 11q37 0 73 -10t63.5 -29.5t44.5 -48.5t17 -68q0 -14 -6 -19.5
t-14 -5.5h-75q-8 0 -14.5 4.5t-8.5 20.5q-4 25 -28 35.5t-52 10.5q-34 0 -57 -10t-23 -31q0 -11 6.5 -18.5t18 -12t26 -7t29.5 -5.5q33 -6 70 -13.5t68.5 -24t52.5 -46.5t21 -81q0 -37 -17 -67t-46 -51.5t-67.5 -33t-81.5 -11.5q-41 0 -79.5 9.5t-68.5 30.5t-48 54.5
t-18 80.5zM242 586q-4 -5 -12 -10.5t-19 -5.5h-95q-13 0 -14.5 10t3.5 15l119 123q5 5 10.5 8.5t19.5 3.5h62q13 0 18.5 -3.5t10.5 -8.5l119 -123q5 -5 3 -15t-16 -10h-94q-11 0 -19 5.5t-12 10.5l-35 44q-7 10 -14 0z" />
    <glyph glyph-name="Scedilla" unicode="&#x15e;" 
d="M371 208q0 32 -23.5 49.5t-80.5 30.5q-47 10 -88 26.5t-71 41.5t-47.5 60.5t-17.5 83.5q0 44 17 82.5t48 67t72.5 45t91.5 16.5t92.5 -16.5t73 -45t47.5 -67t17 -82.5v-15q0 -8 -6 -14t-14 -6h-101q-8 0 -14 6t-6 14v15q0 30 -23 52.5t-66 22.5q-42 0 -64.5 -20
t-22.5 -50q0 -29 25 -46.5t64 -25.5q52 -11 96.5 -27.5t76.5 -43t50.5 -64.5t18.5 -90q0 -49 -18 -89t-50.5 -69t-77.5 -45t-98 -16q-52 0 -95.5 17t-75 46.5t-49.5 69.5t-18 86v30q0 8 6 14t14 6h101q8 0 14 -6t6 -14v-30q0 -35 25 -58.5t72 -23.5q45 0 72 23.5t27 58.5z
M317 -176q-6 -24 -32 -24h-62q-24 0 -29 14t-1 25l29 92q7 24 32 24h54q24 0 28.5 -13.5t1.5 -25.5z" />
    <glyph glyph-name="scedilla" unicode="&#x15f;" 
d="M62 164q0 8 6 14t14 6h76q18 0 23 -6t7 -19q3 -29 28 -40.5t60 -11.5q41 0 66.5 12t25.5 35q0 13 -8 21t-21 13t-29.5 7.5t-33.5 4.5q-31 3 -66 12t-65 27.5t-50 47.5t-20 73q0 33 18 61t46.5 48t64.5 31t72 11q37 0 73 -10t63.5 -29.5t44.5 -48.5t17 -68q0 -14 -6 -19.5
t-14 -5.5h-75q-8 0 -14.5 4.5t-8.5 20.5q-4 25 -28 35.5t-52 10.5q-34 0 -57 -10t-23 -31q0 -11 6.5 -18.5t18 -12t26 -7t29.5 -5.5q33 -6 70 -13.5t68.5 -24t52.5 -46.5t21 -81q0 -37 -17 -67t-46 -51.5t-67.5 -33t-81.5 -11.5q-41 0 -79.5 9.5t-68.5 30.5t-48 54.5
t-18 80.5zM317 -176q-6 -24 -32 -24h-62q-24 0 -29 14t-1 25l29 92q7 24 32 24h54q24 0 28.5 -13.5t1.5 -25.5z" />
    <glyph glyph-name="Scaron" unicode="&#x160;" 
d="M371 208q0 32 -23.5 49.5t-80.5 30.5q-47 10 -88 26.5t-71 41.5t-47.5 60.5t-17.5 83.5q0 44 17 82.5t48 67t72.5 45t91.5 16.5t92.5 -16.5t73 -45t47.5 -67t17 -82.5v-15q0 -8 -6 -14t-14 -6h-101q-8 0 -14 6t-6 14v15q0 30 -23 52.5t-66 22.5q-42 0 -64.5 -20
t-22.5 -50q0 -29 25 -46.5t64 -25.5q52 -11 96.5 -27.5t76.5 -43t50.5 -64.5t18.5 -90q0 -49 -18 -89t-50.5 -69t-77.5 -45t-98 -16q-52 0 -95.5 17t-75 46.5t-49.5 69.5t-18 86v30q0 8 6 14t14 6h101q8 0 14 -6t6 -14v-30q0 -35 25 -58.5t72 -23.5q45 0 72 23.5t27 58.5z
M267 850q7 -11 14 0l35 44q4 5 12 10.5t19 5.5h94q14 0 16 -10t-3 -15l-119 -123q-5 -5 -10.5 -8.5t-18.5 -3.5h-62q-14 0 -19.5 3.5t-10.5 8.5l-119 123q-5 5 -3.5 15t14.5 10h95q11 0 19 -5.5t12 -10.5z" />
    <glyph glyph-name="scaron" unicode="&#x161;" 
d="M62 164q0 8 6 14t14 6h76q18 0 23 -6t7 -19q3 -29 28 -40.5t60 -11.5q41 0 66.5 12t25.5 35q0 13 -8 21t-21 13t-29.5 7.5t-33.5 4.5q-31 3 -66 12t-65 27.5t-50 47.5t-20 73q0 33 18 61t46.5 48t64.5 31t72 11q37 0 73 -10t63.5 -29.5t44.5 -48.5t17 -68q0 -14 -6 -19.5
t-14 -5.5h-75q-8 0 -14.5 4.5t-8.5 20.5q-4 25 -28 35.5t-52 10.5q-34 0 -57 -10t-23 -31q0 -11 6.5 -18.5t18 -12t26 -7t29.5 -5.5q33 -6 70 -13.5t68.5 -24t52.5 -46.5t21 -81q0 -37 -17 -67t-46 -51.5t-67.5 -33t-81.5 -11.5q-41 0 -79.5 9.5t-68.5 30.5t-48 54.5
t-18 80.5zM267 670q7 -11 14 0l35 44q4 5 12 10.5t19 5.5h94q14 0 16 -10t-3 -15l-119 -123q-5 -5 -10.5 -8.5t-18.5 -3.5h-62q-14 0 -19.5 3.5t-10.5 8.5l-119 123q-5 5 -3.5 15t14.5 10h95q11 0 19 -5.5t12 -10.5z" />
    <glyph glyph-name="Tcommaaccent" unicode="&#x162;" 
d="M59 560q-8 0 -14 6t-6 14v100q0 8 6 14t14 6h430q8 0 14 -6t6 -14v-100q0 -8 -6 -14t-14 -6h-135q-10 0 -10 -10v-530q0 -8 -6 -14t-14 -6h-100q-8 0 -14 6t-6 14v530q0 10 -10 10h-135zM225 -185q-8 0 -14 6t-6 14v100q0 8 6 14t14 6h100q8 0 14 -6t6 -14v-97
q0 -20 -6.5 -37.5t-15.5 -31.5l-34 -54q-5 -7 -12 -13.5t-22 -6.5h-10q-15 0 -21.5 12t0.5 26l34 69q3 5 -0.5 9t-8.5 4h-24z" />
    <glyph glyph-name="tcommaaccent" unicode="&#x163;" 
d="M279 170q0 -25 17.5 -38t42.5 -13t42.5 13t17.5 38q0 8 6 14t14 6h90q8 0 14 -6t6 -14q0 -39 -15 -72t-41 -57.5t-60.5 -38t-73.5 -13.5t-73.5 13.5t-60.5 37t-41 56.5t-15 72v199q0 10 -10 10h-98q-8 0 -14 6t-6 14v80q0 8 6 14t14 6h98q10 0 10 10v153q0 8 6 14t14 6
h90q8 0 14 -6t6 -14v-153q0 -10 10 -10h170q8 0 14 -6t6 -14v-80q0 -8 -6 -14t-14 -6h-170q-10 0 -10 -10v-197zM225 -185q-8 0 -14 6t-6 14v100q0 8 6 14t14 6h100q8 0 14 -6t6 -14v-97q0 -20 -6.5 -37.5t-15.5 -31.5l-34 -54q-5 -7 -12 -13.5t-22 -6.5h-10q-15 0 -21.5 12
t0.5 26l34 69q3 5 -0.5 9t-8.5 4h-24z" />
    <glyph glyph-name="Tcaron" unicode="&#x164;" 
d="M59 560q-8 0 -14 6t-6 14v100q0 8 6 14t14 6h430q8 0 14 -6t6 -14v-100q0 -8 -6 -14t-14 -6h-135q-10 0 -10 -10v-530q0 -8 -6 -14t-14 -6h-100q-8 0 -14 6t-6 14v530q0 10 -10 10h-135zM267 850q7 -11 14 0l35 44q4 5 12 10.5t19 5.5h94q14 0 16 -10t-3 -15l-119 -123
q-5 -5 -10.5 -8.5t-18.5 -3.5h-62q-14 0 -19.5 3.5t-10.5 8.5l-119 123q-5 5 -3.5 15t14.5 10h95q11 0 19 -5.5t12 -10.5z" />
    <glyph glyph-name="tcaron" unicode="&#x165;" 
d="M279 170q0 -25 17.5 -38t42.5 -13t42.5 13t17.5 38q0 8 6 14t14 6h90q8 0 14 -6t6 -14q0 -39 -15 -72t-41 -57.5t-60.5 -38t-73.5 -13.5t-73.5 13.5t-60.5 37t-41 56.5t-15 72v199q0 10 -10 10h-98q-8 0 -14 6t-6 14v80q0 8 6 14t14 6h98q10 0 10 10v153q0 8 6 14t14 6
h90q8 0 14 -6t6 -14v-153q0 -10 10 -10h80q8 0 14 -6t6 -14v-80q0 -8 -6 -14t-14 -6h-80q-10 0 -10 -10v-197zM419 560q-8 0 -14 6t-6 14v100q0 8 6 14t14 6h100q8 0 14 -6t6 -14v-97q0 -20 -6.5 -37.5t-15.5 -31.5l-34 -54q-5 -7 -12 -13.5t-22 -6.5h-10q-15 0 -21.5 12
t0.5 26l34 69q3 5 -0.5 9t-8.5 4h-24z" />
    <glyph glyph-name="Tbar" unicode="&#x166;" 
d="M204 370q0 10 -10 10h-123q-8 0 -14 6t-6 14v80q0 8 6 14t14 6h123q10 0 10 10v50q0 10 -10 10h-135q-8 0 -14 6t-6 14v90q0 8 6 14t14 6h430q8 0 14 -6t6 -14v-90q0 -8 -6 -14t-14 -6h-135q-10 0 -10 -10v-50q0 -10 10 -10h122q8 0 14 -6t6 -14v-80q0 -8 -6 -14t-14 -6
h-122q-10 0 -10 -10v-350q0 -8 -6 -14t-14 -6h-100q-8 0 -14 6t-6 14v350z" />
    <glyph glyph-name="tbar" unicode="&#x167;" 
d="M279 170q0 -25 17.5 -38t42.5 -13t42.5 13t17.5 38q0 8 6 14t14 6h90q8 0 14 -6t6 -14q0 -39 -15 -72t-41 -57.5t-60.5 -38t-73.5 -13.5t-73.5 13.5t-60.5 37t-41 56.5t-15 72v57q0 10 -10 10h-88q-8 0 -14 6t-6 14v70q0 8 6 14t14 6h88q10 0 10 10v22q0 10 -10 10h-98
q-8 0 -14 6t-6 14v70q0 8 6 14t14 6h98q10 0 10 10v153q0 8 6 14t14 6h90q8 0 14 -6t6 -14v-153q0 -10 10 -10h170q8 0 14 -6t6 -14v-70q0 -8 -6 -14t-14 -6h-170q-10 0 -10 -10v-22q0 -10 10 -10h130q8 0 14 -6t6 -14v-70q0 -8 -6 -14t-14 -6h-130q-10 0 -10 -10v-55z" />
    <glyph glyph-name="Utilde" unicode="&#x168;" 
d="M178 210q0 -33 25 -56.5t70 -23.5q46 0 71.5 23.5t25.5 56.5v470q0 8 6 14t14 6h101q8 0 14 -6t6 -14v-470q0 -45 -18 -85.5t-49.5 -70.5t-75 -47.5t-95.5 -17.5q-51 0 -94.5 17.5t-75 47.5t-49 70.5t-17.5 85.5v470q0 8 6 14t14 6h101q8 0 14 -6t6 -14v-470zM367 864
q19 0 29.5 6.5t16.5 14.5t15.5 4t9.5 -18v-60q0 -20 -20.5 -35.5t-50.5 -15.5q-24 0 -45.5 4t-43 8.5t-44 8.5t-47.5 4q-17 0 -27.5 -5.5t-18.5 -15.5q-6 -7 -15.5 -3.5t-9.5 17.5v60q0 20 20.5 35.5t50.5 15.5q24 0 45.5 -4t43 -8.5t43.5 -8.5t48 -4z" />
    <glyph glyph-name="utilde" unicode="&#x169;" 
d="M365 20q-11 0 -20.5 -5t-20.5 -10.5t-26.5 -10.5t-37.5 -5q-39 0 -74 14.5t-60.5 39.5t-40.5 59t-15 73v305q0 8 6 14t14 6h90q8 0 14 -6t6 -14v-306q0 -25 19.5 -42t55.5 -17q35 0 55 16t20 39v310q0 8 6 14t14 6h90q8 0 14 -6t6 -14v-460q0 -8 -6 -14t-14 -6h-50
q-9 0 -14 3t-9 7q-5 4 -9.5 7t-12.5 3zM365 684q19 0 29.5 6.5t16.5 14.5t15.5 4t9.5 -18v-60q0 -20 -20.5 -35.5t-50.5 -15.5q-24 0 -45.5 4t-43 8.5t-44 8.5t-47.5 4q-17 0 -27.5 -5.5t-18.5 -15.5q-6 -7 -15.5 -3.5t-9.5 17.5v60q0 20 20.5 35.5t50.5 15.5q24 0 45.5 -4
t43 -8.5t43.5 -8.5t48 -4z" />
    <glyph glyph-name="Umacron" unicode="&#x16a;" 
d="M178 210q0 -33 25 -56.5t70 -23.5q46 0 71.5 23.5t25.5 56.5v470q0 8 6 14t14 6h101q8 0 14 -6t6 -14v-470q0 -45 -18 -85.5t-49.5 -70.5t-75 -47.5t-95.5 -17.5q-51 0 -94.5 17.5t-75 47.5t-49 70.5t-17.5 85.5v470q0 8 6 14t14 6h101q8 0 14 -6t6 -14v-470zM144 760
q-8 0 -14 6t-6 14v58q0 8 6 14t14 6h262q8 0 14 -6t6 -14v-58q0 -8 -6 -14t-14 -6h-262z" />
    <glyph glyph-name="umacron" unicode="&#x16b;" 
d="M365 20q-11 0 -20.5 -5t-20.5 -10.5t-26.5 -10.5t-37.5 -5q-39 0 -74 14.5t-60.5 39.5t-40.5 59t-15 73v305q0 8 6 14t14 6h90q8 0 14 -6t6 -14v-306q0 -25 19.5 -42t55.5 -17q35 0 55 16t20 39v310q0 8 6 14t14 6h90q8 0 14 -6t6 -14v-460q0 -8 -6 -14t-14 -6h-50
q-9 0 -14 3t-9 7q-5 4 -9.5 7t-12.5 3zM144 596q-8 0 -14 6t-6 14v58q0 8 6 14t14 6h262q8 0 14 -6t6 -14v-58q0 -8 -6 -14t-14 -6h-262z" />
    <glyph glyph-name="Ubreve" unicode="&#x16c;" 
d="M178 210q0 -33 25 -56.5t70 -23.5q46 0 71.5 23.5t25.5 56.5v470q0 8 6 14t14 6h101q8 0 14 -6t6 -14v-470q0 -45 -18 -85.5t-49.5 -70.5t-75 -47.5t-95.5 -17.5q-51 0 -94.5 17.5t-75 47.5t-49 70.5t-17.5 85.5v470q0 8 6 14t14 6h101q8 0 14 -6t6 -14v-470zM335 886
q0 7 4.5 12t12.5 5h63q7 0 12 -5t5 -12q0 -29 -11 -55.5t-31.5 -46.5t-49.5 -32t-65 -12t-65 12t-50 32t-32 46.5t-11 55.5q0 7 5 12t12 5h63q8 0 12.5 -5t4.5 -12q0 -23 19 -39.5t42 -16.5t41.5 16.5t18.5 39.5z" />
    <glyph glyph-name="ubreve" unicode="&#x16d;" 
d="M365 20q-11 0 -20.5 -5t-20.5 -10.5t-26.5 -10.5t-37.5 -5q-39 0 -74 14.5t-60.5 39.5t-40.5 59t-15 73v305q0 8 6 14t14 6h90q8 0 14 -6t6 -14v-306q0 -25 19.5 -42t55.5 -17q35 0 55 16t20 39v310q0 8 6 14t14 6h90q8 0 14 -6t6 -14v-460q0 -8 -6 -14t-14 -6h-50
q-9 0 -14 3t-9 7q-5 4 -9.5 7t-12.5 3zM335 713q0 7 4.5 12t12.5 5h63q7 0 12 -5t5 -12q0 -29 -11 -55.5t-31.5 -46.5t-49.5 -32t-65 -12t-65 12t-50 32t-32 46.5t-11 55.5q0 7 5 12t12 5h63q8 0 12.5 -5t4.5 -12q0 -23 19 -39.5t42 -16.5t41.5 16.5t18.5 39.5z" />
    <glyph glyph-name="Uring" unicode="&#x16e;" 
d="M178 210q0 -33 25 -56.5t70 -23.5q46 0 71.5 23.5t25.5 56.5v470q0 8 6 14t14 6h101q8 0 14 -6t6 -14v-470q0 -45 -18 -85.5t-49.5 -70.5t-75 -47.5t-95.5 -17.5q-51 0 -94.5 17.5t-75 47.5t-49 70.5t-17.5 85.5v470q0 8 6 14t14 6h101q8 0 14 -6t6 -14v-470zM159 850
q0 24 9 45t25 36.5t37 24.5t45 9t45 -9t36.5 -24.5t24.5 -36.5t9 -45t-9 -45t-24.5 -37t-36.5 -25t-45 -9t-45 9t-37 25t-25 37t-9 45zM243 850q0 -14 9 -23t23 -9t23 9t9 23t-9 23t-23 9t-23 -9t-9 -23z" />
    <glyph glyph-name="uring" unicode="&#x16f;" 
d="M365 20q-11 0 -20.5 -5t-20.5 -10.5t-26.5 -10.5t-37.5 -5q-39 0 -74 14.5t-60.5 39.5t-40.5 59t-15 73v305q0 8 6 14t14 6h90q8 0 14 -6t6 -14v-306q0 -25 19.5 -42t55.5 -17q35 0 55 16t20 39v310q0 8 6 14t14 6h90q8 0 14 -6t6 -14v-460q0 -8 -6 -14t-14 -6h-50
q-9 0 -14 3t-9 7q-5 4 -9.5 7t-12.5 3zM159 670q0 24 9 45t25 36.5t37 24.5t45 9t45 -9t36.5 -24.5t24.5 -36.5t9 -45t-9 -45t-24.5 -37t-36.5 -25t-45 -9t-45 9t-37 25t-25 37t-9 45zM243 670q0 -14 9 -23t23 -9t23 9t9 23t-9 23t-23 9t-23 -9t-9 -23z" />
    <glyph glyph-name="Uhungarumlaut" unicode="&#x170;" 
d="M178 210q0 -33 25 -56.5t70 -23.5q46 0 71.5 23.5t25.5 56.5v470q0 8 6 14t14 6h101q8 0 14 -6t6 -14v-470q0 -45 -18 -85.5t-49.5 -70.5t-75 -47.5t-95.5 -17.5q-51 0 -94.5 17.5t-75 47.5t-49 70.5t-17.5 85.5v470q0 8 6 14t14 6h101q8 0 14 -6t6 -14v-470zM314 910
q14 0 17 -9t-5 -18l-115 -121q-5 -5 -10.5 -8.5t-19.5 -3.5h-69q-10 0 -16 9t3 21l82 114q4 5 9.5 10.5t16.5 5.5h107zM521 910q14 0 17 -9t-5 -18l-115 -121q-5 -5 -10.5 -8.5t-19.5 -3.5h-69q-10 0 -16 9t3 21l82 114q4 5 9.5 10.5t16.5 5.5h107z" />
    <glyph glyph-name="uhungarumlaut" unicode="&#x171;" 
d="M365 20q-11 0 -20.5 -5t-20.5 -10.5t-26.5 -10.5t-37.5 -5q-39 0 -74 14.5t-60.5 39.5t-40.5 59t-15 73v305q0 8 6 14t14 6h90q8 0 14 -6t6 -14v-306q0 -25 19.5 -42t55.5 -17q35 0 55 16t20 39v310q0 8 6 14t14 6h90q8 0 14 -6t6 -14v-460q0 -8 -6 -14t-14 -6h-50
q-9 0 -14 3t-9 7q-5 4 -9.5 7t-12.5 3zM324 730q14 0 17 -9t-5 -18l-115 -121q-5 -5 -10.5 -8.5t-19.5 -3.5h-69q-10 0 -16 9t3 21l82 114q4 5 9.5 10.5t16.5 5.5h107zM531 730q14 0 17 -9t-5 -18l-115 -121q-5 -5 -10.5 -8.5t-19.5 -3.5h-69q-10 0 -16 9t3 21l82 114
q4 5 9.5 10.5t16.5 5.5h107z" />
    <glyph glyph-name="Uogonek" unicode="&#x172;" 
d="M179 210q0 -33 25 -56.5t70 -23.5q46 0 71.5 23.5t25.5 56.5v470q0 8 6 14t14 6h101q8 0 14 -6t6 -14v-470q0 -38 -12 -73t-36 -62q-20 -22 -34.5 -39t-24 -32t-14.5 -30t-5 -34q0 -25 17.5 -42.5t42.5 -17.5q8 0 14 -6t6 -14v-60q0 -8 -6 -14t-14 -6q-38 0 -69.5 9.5
t-55 29t-36.5 50t-13 71.5q0 14 4 27t9 22h-11q-51 0 -94.5 17.5t-75 47.5t-49 70.5t-17.5 85.5v470q0 8 6 14t14 6h101q8 0 14 -6t6 -14v-470z" />
    <glyph glyph-name="uogonek" unicode="&#x173;" 
d="M200 174q0 -25 19.5 -42t55.5 -17q35 0 55 16t20 39v310q0 8 6 14t14 6h90q8 0 14 -6t6 -14v-460q0 -8 -5 -14t-13 -6h-7q-23 0 -39 -18t-16 -42q0 -25 17.5 -42.5t42.5 -17.5q8 0 14 -6t6 -14v-60q0 -8 -6 -14t-14 -6q-38 0 -69.5 9t-55 28t-36.5 47.5t-13 67.5
q0 17 4.5 35t12.5 29q-9 -3 -19 -5t-24 -2q-39 0 -74 14.5t-60.5 39.5t-40.5 59t-15 73v305q0 8 6 14t14 6h90q8 0 14 -6t6 -14v-306z" />
    <glyph glyph-name="Wcircumflex" unicode="&#x174;" 
d="M361 285q2 -7 7.5 -7t6.5 7l38 400q1 8 6.5 11.5t12.5 3.5h93q12 0 16.5 -6t3.5 -14l-71 -665q-1 -8 -6.5 -11.5t-12.5 -3.5h-120q-16 0 -19 15l-35 181q-1 5 -6 5t-6 -5l-35 -181q-3 -15 -19 -15h-120q-7 0 -12.5 3.5t-6.5 11.5l-71 665q-1 8 3.5 14t16.5 6h93
q7 0 12.5 -3.5t6.5 -11.5l39 -400q1 -7 6.5 -7t7.5 7l36 200q3 15 19 15h60q16 0 19 -15zM235 766q-4 -5 -12 -10.5t-19 -5.5h-95q-13 0 -14.5 10t3.5 15l119 123q5 5 10.5 8.5t19.5 3.5h62q13 0 18.5 -3.5t10.5 -8.5l119 -123q5 -5 3 -15t-16 -10h-94q-11 0 -19 5.5
t-12 10.5l-35 44q-7 10 -14 0z" />
    <glyph glyph-name="wcircumflex" unicode="&#x175;" 
d="M306 390q15 0 19 -15l37 -150q2 -5 6.5 -4.5t5.5 4.5l33 260q1 8 6.5 11.5t12.5 3.5h94q12 0 16.5 -7.5t2.5 -15.5l-79 -462q-3 -15 -19 -15h-109q-16 0 -19 15l-33 153q-2 5 -7.5 5t-6.5 -5l-28 -153q-3 -15 -19 -15h-109q-16 0 -19 15l-81 462q-2 8 2.5 15.5t16.5 7.5
h94q7 0 12.5 -3.5t6.5 -11.5l33 -260q1 -5 6 -4.5t6 4.5l32 150q3 15 19 15h68zM232 586q-4 -5 -12 -10.5t-19 -5.5h-95q-13 0 -14.5 10t3.5 15l119 123q5 5 10.5 8.5t19.5 3.5h62q13 0 18.5 -3.5t10.5 -8.5l119 -123q5 -5 3 -15t-16 -10h-94q-11 0 -19 5.5t-12 10.5l-35 44
q-7 10 -14 0z" />
    <glyph glyph-name="Ycircumflex" unicode="&#x176;" 
d="M377 685q5 15 19 15h110q10 0 15.5 -8.5t0.5 -19.5l-177 -446v-206q0 -8 -6 -14t-14 -6h-100q-8 0 -14 6t-6 14v206l-177 446q-5 11 0.5 19.5t15.5 8.5h110q14 0 19 -15l96 -277q1 -4 5 -4h2q4 0 5 4zM235 766q-4 -5 -12 -10.5t-19 -5.5h-95q-13 0 -14.5 10t3.5 15
l119 123q5 5 10.5 8.5t19.5 3.5h62q13 0 18.5 -3.5t10.5 -8.5l119 -123q5 -5 3 -15t-16 -10h-94q-11 0 -19 5.5t-12 10.5l-35 44q-7 10 -14 0z" />
    <glyph glyph-name="ycircumflex" unicode="&#x177;" 
d="M273 201q2 -6 6 -6t6 6l81 284q4 15 19 15h101q12 0 17 -7.5t2 -15.5l-235 -662q-5 -15 -19 -15h-92q-12 0 -17 7.5t-2 15.5l70 187q2 7 2.5 10.5t-2.5 11.5l-166 445q-3 8 2 15.5t17 7.5h103q14 0 19 -15zM232 586q-4 -5 -12 -10.5t-19 -5.5h-95q-13 0 -14.5 10t3.5 15
l119 123q5 5 10.5 8.5t19.5 3.5h62q13 0 18.5 -3.5t10.5 -8.5l119 -123q5 -5 3 -15t-16 -10h-94q-11 0 -19 5.5t-12 10.5l-35 44q-7 10 -14 0z" />
    <glyph glyph-name="Ydieresis" unicode="&#x178;" 
d="M377 685q5 15 19 15h110q10 0 15.5 -8.5t0.5 -19.5l-177 -446v-206q0 -8 -6 -14t-14 -6h-100q-8 0 -14 6t-6 14v206l-177 446q-5 11 0.5 19.5t15.5 8.5h110q14 0 19 -15l96 -277q1 -4 5 -4h2q4 0 5 4zM240 780q0 -8 -6 -14t-14 -6h-90q-8 0 -14 6t-6 14v90q0 8 6 14t14 6
h90q8 0 14 -6t6 -14v-90zM440 780q0 -8 -6 -14t-14 -6h-90q-8 0 -14 6t-6 14v90q0 8 6 14t14 6h90q8 0 14 -6t6 -14v-90z" />
    <glyph glyph-name="Zacute" unicode="&#x179;" 
d="M212 147q-2 -4 -0.5 -7t6.5 -3h264q8 0 14 -6t6 -14v-97q0 -8 -6 -14t-14 -6h-414q-8 0 -14 6t-6 14v119q0 8 5 16l276 398q2 4 0.5 7t-6.5 3h-240q-8 0 -14 6t-6 14v97q0 8 6 14t14 6h389q8 0 14 -6t6 -14v-116q0 -8 -5 -16zM427 910q14 0 17 -9t-5 -18l-115 -121
q-5 -5 -10.5 -8.5t-19.5 -3.5h-69q-10 0 -16 9t3 21l82 114q4 5 9.5 10.5t16.5 5.5h107z" />
    <glyph glyph-name="zacute" unicode="&#x17a;" 
d="M310 370q3 4 1.5 7t-6.5 3h-205q-8 0 -14 6t-6 14v80q0 8 6 14t14 6h348q8 0 14 -6t6 -14v-87q0 -14 -6 -23.5t-14 -17.5l-214 -222q-3 -4 -1.5 -7t6.5 -3h219q8 0 14 -6t6 -14v-80q0 -8 -6 -14t-14 -6h-368q-8 0 -14 6t-6 14v90q0 10 1.5 15.5t11.5 15.5zM417 730
q14 0 17 -9t-5 -18l-115 -121q-5 -5 -10.5 -8.5t-19.5 -3.5h-69q-10 0 -16 9t3 21l82 114q4 5 9.5 10.5t16.5 5.5h107z" />
    <glyph glyph-name="Zdotaccent" unicode="&#x17b;" 
d="M212 147q-2 -4 -0.5 -7t6.5 -3h264q8 0 14 -6t6 -14v-97q0 -8 -6 -14t-14 -6h-414q-8 0 -14 6t-6 14v119q0 8 5 16l276 398q2 4 0.5 7t-6.5 3h-240q-8 0 -14 6t-6 14v97q0 8 6 14t14 6h389q8 0 14 -6t6 -14v-116q0 -8 -5 -16zM355 766q0 -16 -16 -16h-108q-16 0 -16 16
v108q0 6 4.5 11t11.5 5h108q7 0 11.5 -5t4.5 -11v-108z" />
    <glyph glyph-name="zdotaccent" unicode="&#x17c;" 
d="M310 370q3 4 1.5 7t-6.5 3h-205q-8 0 -14 6t-6 14v80q0 8 6 14t14 6h348q8 0 14 -6t6 -14v-87q0 -14 -6 -23.5t-14 -17.5l-214 -222q-3 -4 -1.5 -7t6.5 -3h219q8 0 14 -6t6 -14v-80q0 -8 -6 -14t-14 -6h-368q-8 0 -14 6t-6 14v90q0 10 1.5 15.5t11.5 15.5zM345 586
q0 -16 -16 -16h-108q-16 0 -16 16v108q0 6 4.5 11t11.5 5h108q7 0 11.5 -5t4.5 -11v-108z" />
    <glyph glyph-name="Zcaron" unicode="&#x17d;" 
d="M212 147q-2 -4 -0.5 -7t6.5 -3h264q8 0 14 -6t6 -14v-97q0 -8 -6 -14t-14 -6h-414q-8 0 -14 6t-6 14v119q0 8 5 16l276 398q2 4 0.5 7t-6.5 3h-240q-8 0 -14 6t-6 14v97q0 8 6 14t14 6h389q8 0 14 -6t6 -14v-116q0 -8 -5 -16zM267 850q7 -11 14 0l35 44q4 5 12 10.5
t19 5.5h94q14 0 16 -10t-3 -15l-119 -123q-5 -5 -10.5 -8.5t-18.5 -3.5h-62q-14 0 -19.5 3.5t-10.5 8.5l-119 123q-5 5 -3.5 15t14.5 10h95q11 0 19 -5.5t12 -10.5z" />
    <glyph glyph-name="zcaron" unicode="&#x17e;" 
d="M310 370q3 4 1.5 7t-6.5 3h-205q-8 0 -14 6t-6 14v80q0 8 6 14t14 6h348q8 0 14 -6t6 -14v-87q0 -14 -6 -23.5t-14 -17.5l-214 -222q-3 -4 -1.5 -7t6.5 -3h219q8 0 14 -6t6 -14v-80q0 -8 -6 -14t-14 -6h-368q-8 0 -14 6t-6 14v90q0 10 1.5 15.5t11.5 15.5zM267 670
q7 -11 14 0l35 44q4 5 12 10.5t19 5.5h94q14 0 16 -10t-3 -15l-119 -123q-5 -5 -10.5 -8.5t-18.5 -3.5h-62q-14 0 -19.5 3.5t-10.5 8.5l-119 123q-5 5 -3.5 15t14.5 10h95q11 0 19 -5.5t12 -10.5z" />
    <glyph glyph-name="longs" unicode="&#x17f;" 
d="M320 20q0 -8 -6 -14t-14 -6h-90q-8 0 -14 6t-6 14v347q0 10 -10 10h-110q-8 0 -14 6t-6 14v80q0 8 6 14t14 6h110q10 0 10 10v20q0 39 15 72.5t41 58t60.5 38.5t73.5 14h90q8 0 14 -6t6 -14v-90q0 -8 -6 -14t-14 -6h-90q-25 0 -42.5 -15t-17.5 -40v-505z" />
    <glyph glyph-name="florin" unicode="&#x192;" 
d="M191 367q0 10 -10 10h-110q-8 0 -14 6t-6 14v80q0 8 6 14t14 6h110q10 0 10 10v20q0 39 15 72.5t41 58t60.5 38.5t73.5 14h90q8 0 14 -6t6 -14v-90q0 -8 -6 -14t-14 -6h-90q-25 0 -42.5 -15t-17.5 -40v-18q0 -10 10 -10h140q8 0 14 -6t6 -14v-80q0 -8 -6 -14t-14 -6h-140
q-10 0 -10 -10v-377q0 -94 -33.5 -142t-120.5 -48h-71q-8 0 -14 6t-6 14v90q0 8 5.5 14t13.5 6h53q20 0 31.5 14t11.5 46v377z" />
    <glyph glyph-name="Aringacute" unicode="&#x1fa;" 
d="M439 1080q14 0 17 -9t-5 -18l-105 -110q22 -16 34.5 -40t12.5 -53q0 -24 -9 -45t-24.5 -37t-36.5 -25t-45 -9t-45 9t-37 25t-25 37t-9 45q0 42 25.5 72.5t64.5 39.5l54 102q3 6 9 11t17 5h107zM246 850q0 -14 9 -23t23 -9t23 9t9 23t-9 23t-23 9t-23 -9t-9 -23zM154 15
q-3 -15 -19 -15h-105q-12 0 -17 6.5t-3 13.5l179 665q3 15 19 15h134q16 0 19 -15l178 -665q2 -7 -3 -13.5t-17 -6.5h-105q-14 0 -19 15l-31 103q-2 6 -5 10.5t-10 4.5h-152q-12 0 -15 -15zM220 284q-3 -11 8 -11h92q11 0 8 11l-48 240q-1 4 -5 4h-2q-4 0 -5 -4z" />
    <glyph glyph-name="aringacute" unicode="&#x1fb;" 
d="M446 900q14 0 17 -9t-5 -18l-105 -110q22 -16 34.5 -40t12.5 -53q0 -24 -9 -45t-24.5 -37t-36.5 -25t-45 -9t-45 9t-37 25t-25 37t-9 45q0 42 25.5 72.5t64.5 39.5l54 102q3 6 9 11t17 5h107zM253 670q0 -14 9 -23t23 -9t23 9t9 23t-9 23t-23 9t-23 -9t-9 -23zM242 204
q-16 0 -26 -5.5t-15.5 -13.5t-7.5 -16.5t-2 -14.5q0 -28 19.5 -40.5t46.5 -12.5q43 0 72 15t29 54v24q0 10 -10 10h-106zM276 397q-8 0 -19.5 -1.5t-22.5 -5.5t-19 -11.5t-8 -19.5q0 -13 -6.5 -16t-20.5 -3h-72q-8 0 -14 6t-6 14q0 30 13.5 57t38 48t60.5 33.5t81 12.5
q91 0 145.5 -46.5t54.5 -134.5v-310q0 -8 -6 -14t-14 -6h-50q-8 0 -14 7q-5 6 -7.5 13t-12.5 7q-7 0 -16 -6t-23 -13t-33.5 -13t-47.5 -6q-88 0 -138 43t-50 122q0 26 10.5 53.5t32 50.5t54 37.5t75.5 14.5h102q10 0 10 10v16q0 31 -22 46t-55 15z" />
    <glyph glyph-name="AEacute" unicode="&#x1fc;" 
d="M284 118q0 6 -4 10.5t-11 4.5h-87q-12 0 -15 -15l-28 -103q-3 -15 -19 -15h-95q-12 0 -17 6.5t-3 13.5l176 654q2 7 10 16.5t24 9.5h311q8 0 14 -6t6 -14v-100q0 -8 -6 -14t-14 -6h-102q-10 0 -10 -10v-120q0 -10 10 -10h94q8 0 14 -6t6 -14v-100q0 -8 -6 -14t-14 -6h-94
q-10 0 -10 -10v-120q0 -10 10 -10h103q8 0 14 -6t6 -14v-100q0 -8 -6 -14t-14 -6h-223q-8 0 -14 6t-6 14v98zM274 273q10 0 10 11v266q0 10 -10 10h-2q-7 0 -9.5 -3.5t-3.5 -6.5l-54 -266q-3 -11 8 -11h61zM497 910q14 0 17 -9t-5 -18l-115 -121q-5 -5 -10.5 -8.5
t-19.5 -3.5h-69q-10 0 -16 9t3 21l82 114q4 5 9.5 10.5t16.5 5.5h107z" />
    <glyph glyph-name="aeacute" unicode="&#x1fd;" 
d="M294 24q-20 17 -38 0q-20 -17 -46.5 -26t-55.5 -9q-32 0 -60 12t-48 33.5t-31.5 52t-11.5 67.5q0 26 10.5 53.5t30.5 50.5t49.5 37.5t68.5 14.5h36q10 0 10 10v16q-1 31 -14.5 46t-33.5 15q-13 0 -23.5 -9t-14.5 -29q-3 -13 -8 -16t-19 -3h-62q-8 0 -14 6t-6 14
q0 27 9.5 54t28 48.5t46.5 35t65 13.5q32 0 54 -9.5t45 -28.5q6 -5 14 -6t16 6q19 16 43 27t53 11q81 0 120.5 -67t39.5 -184v-30q-1 -8 -6.5 -14t-13.5 -6h-183q-15 0 -15 -15q0 -42 16 -65.5t45 -23.5q42 0 52 46q2 10 9 13.5t14 3.5h63q17 0 17 -20q0 -26 -10 -54
t-29 -51.5t-46.5 -39t-62.5 -15.5q-37 0 -64 12t-39 23zM157 204q-11 0 -19 -5.5t-13 -13t-7.5 -16t-2.5 -15.5q0 -28 13.5 -40t33.5 -12q26 0 38.5 20t12.5 58v14q0 10 -10 10h-46zM324 319q0 -9 10 -9h101q10 0 10 9q0 36 -16 55t-42 19q-32 0 -47.5 -22.5t-15.5 -51.5z
M417 730q14 0 17 -9t-5 -18l-115 -121q-5 -5 -10.5 -8.5t-19.5 -3.5h-69q-10 0 -16 9t3 21l82 114q4 5 9.5 10.5t16.5 5.5h107z" />
    <glyph glyph-name="Oslashacute" unicode="&#x1fe;" 
d="M427 910q14 0 17 -9t-5 -18l-115 -121q-5 -5 -10.5 -8.5t-19.5 -3.5h-69q-10 0 -16 9t3 21l82 114q4 5 9.5 10.5t16.5 5.5h107zM129 15q-9 -15 -21 -15h-64q-10 0 -16 8.5t0 19.5l41 68q5 7 3.5 10l-2.5 5q-25 44 -31 99q-4 31 -6 67t-2 73t2 72.5t6 67.5q5 45 23.5 85
t49 70.5t72 48t93.5 17.5q37 0 69 -9t58 -26q3 -2 6.5 -3.5t8.5 5.5l5 7q5 8 8.5 11.5t10.5 3.5h64q10 0 16 -9t0 -19l-40 -66q-5 -8 -3 -11t3 -5q13 -23 20.5 -48t11.5 -52q4 -32 5.5 -67.5t1.5 -72.5t-1.5 -73t-5.5 -67q-5 -45 -23.5 -85t-49 -70.5t-72 -48t-93.5 -17.5
q-78 0 -133 37q-2 1 -4.5 2t-5.5 -4zM277 130q46 0 69.5 23.5t27.5 56.5q5 47 6.5 101.5t-0.5 106.5q0 4 -2 6t-5 -3l-160 -265q-2 -4 -1 -6t3 -3q25 -17 62 -17zM277 570q-46 0 -69.5 -23.5t-27.5 -56.5q-6 -47 -7.5 -101.5t0.5 -106.5q0 -3 2 -4.5t5 3.5l157 260
q4 7 2.5 9.5t-3.5 3.5q-24 16 -59 16z" />
    <glyph glyph-name="oslashacute" unicode="&#x1ff;" 
d="M417 730q14 0 17 -9t-5 -18l-115 -121q-5 -5 -10.5 -8.5t-19.5 -3.5h-69q-10 0 -16 9t3 21l82 114q4 5 9.5 10.5t16.5 5.5h107zM459 413q-3 -4 -2.5 -5.5t1.5 -3.5q18 -36 24 -79q2 -15 3 -34.5t1 -40.5t-1 -40.5t-3 -34.5q-5 -39 -20.5 -73t-42 -59t-62.5 -39.5
t-82 -14.5q-36 0 -65 8t-53 24q-2 2 -5 3t-7 -4l-6 -7q-10 -13 -24 -13h-66q-10 0 -14.5 9.5t3.5 18.5l48 59q5 6 4 9t-2 5q-8 17 -13.5 35.5t-7.5 38.5q-2 15 -3 34.5t-1 40.5t1 40.5t3 34.5q5 39 20.5 73t42 59t62.5 39.5t82 14.5q35 0 64 -8.5t52 -22.5l4 -2t6 3l4 4
q13 15 24 15h64q10 0 15.5 -9.5t-2.5 -18.5zM352 175q3 19 4 45.5t0 52.5q0 3 -1.5 5t-5.5 -3l-113 -140q-5 -5 -2.5 -7.5t4.5 -3.5q17 -5 36 -5q38 0 56 15.5t22 40.5zM197 325q-3 -18 -4.5 -42.5t-0.5 -49.5q0 -3 2 -5.5t7 3.5l109 137q4 5 1.5 6.5t-4.5 2.5q-7 2 -15.5 3
t-17.5 1q-38 0 -55 -13.5t-22 -42.5z" />
    <glyph glyph-name="Scommaaccent" unicode="&#x218;" 
d="M371 208q0 32 -23.5 49.5t-80.5 30.5q-47 10 -88 26.5t-71 41.5t-47.5 60.5t-17.5 83.5q0 44 17 82.5t48 67t72.5 45t91.5 16.5t92.5 -16.5t73 -45t47.5 -67t17 -82.5v-15q0 -8 -6 -14t-14 -6h-101q-8 0 -14 6t-6 14v15q0 30 -23 52.5t-66 22.5q-42 0 -64.5 -20
t-22.5 -50q0 -29 25 -46.5t64 -25.5q52 -11 96.5 -27.5t76.5 -43t50.5 -64.5t18.5 -90q0 -49 -18 -89t-50.5 -69t-77.5 -45t-98 -16q-52 0 -95.5 17t-75 46.5t-49.5 69.5t-18 86v30q0 8 6 14t14 6h101q8 0 14 -6t6 -14v-30q0 -35 25 -58.5t72 -23.5q45 0 72 23.5t27 58.5z
M225 -185q-8 0 -14 6t-6 14v100q0 8 6 14t14 6h100q8 0 14 -6t6 -14v-97q0 -20 -6.5 -37.5t-15.5 -31.5l-34 -54q-5 -7 -12 -13.5t-22 -6.5h-10q-15 0 -21.5 12t0.5 26l34 69q3 5 -0.5 9t-8.5 4h-24z" />
    <glyph glyph-name="scommaaccent" unicode="&#x219;" 
d="M62 164q0 8 6 14t14 6h76q18 0 23 -6t7 -19q3 -29 28 -40.5t60 -11.5q41 0 66.5 12t25.5 35q0 13 -8 21t-21 13t-29.5 7.5t-33.5 4.5q-31 3 -66 12t-65 27.5t-50 47.5t-20 73q0 33 18 61t46.5 48t64.5 31t72 11q37 0 73 -10t63.5 -29.5t44.5 -48.5t17 -68q0 -14 -6 -19.5
t-14 -5.5h-75q-8 0 -14.5 4.5t-8.5 20.5q-4 25 -28 35.5t-52 10.5q-34 0 -57 -10t-23 -31q0 -11 6.5 -18.5t18 -12t26 -7t29.5 -5.5q33 -6 70 -13.5t68.5 -24t52.5 -46.5t21 -81q0 -37 -17 -67t-46 -51.5t-67.5 -33t-81.5 -11.5q-41 0 -79.5 9.5t-68.5 30.5t-48 54.5
t-18 80.5zM225 -185q-8 0 -14 6t-6 14v100q0 8 6 14t14 6h100q8 0 14 -6t6 -14v-97q0 -20 -6.5 -37.5t-15.5 -31.5l-34 -54q-5 -7 -12 -13.5t-22 -6.5h-10q-15 0 -21.5 12t0.5 26l34 69q3 5 -0.5 9t-8.5 4h-24z" />
    <glyph glyph-name="uni021A" unicode="&#x21a;" 
d="M59 560q-8 0 -14 6t-6 14v100q0 8 6 14t14 6h430q8 0 14 -6t6 -14v-100q0 -8 -6 -14t-14 -6h-135q-10 0 -10 -10v-530q0 -8 -6 -14t-14 -6h-100q-8 0 -14 6t-6 14v530q0 10 -10 10h-135zM225 -185q-8 0 -14 6t-6 14v100q0 8 6 14t14 6h100q8 0 14 -6t6 -14v-97
q0 -20 -6.5 -37.5t-15.5 -31.5l-34 -54q-5 -7 -12 -13.5t-22 -6.5h-10q-15 0 -21.5 12t0.5 26l34 69q3 5 -0.5 9t-8.5 4h-24z" />
    <glyph glyph-name="uni021B" unicode="&#x21b;" 
d="M279 170q0 -25 17.5 -38t42.5 -13t42.5 13t17.5 38q0 8 6 14t14 6h90q8 0 14 -6t6 -14q0 -39 -15 -72t-41 -57.5t-60.5 -38t-73.5 -13.5t-73.5 13.5t-60.5 37t-41 56.5t-15 72v199q0 10 -10 10h-98q-8 0 -14 6t-6 14v80q0 8 6 14t14 6h98q10 0 10 10v153q0 8 6 14t14 6
h90q8 0 14 -6t6 -14v-153q0 -10 10 -10h170q8 0 14 -6t6 -14v-80q0 -8 -6 -14t-14 -6h-170q-10 0 -10 -10v-197zM225 -185q-8 0 -14 6t-6 14v100q0 8 6 14t14 6h100q8 0 14 -6t6 -14v-97q0 -20 -6.5 -37.5t-15.5 -31.5l-34 -54q-5 -7 -12 -13.5t-22 -6.5h-10q-15 0 -21.5 12
t0.5 26l34 69q3 5 -0.5 9t-8.5 4h-24z" />
    <glyph glyph-name="hsuperior" unicode="&#x2b0;" 
d="M179 350q-10 0 -10 10v336q0 10 10 10h60q10 0 10 -10v-91q0 -20 15 -12q6 3 17.5 8t22.5 5q35 0 55.5 -26t20.5 -66v-154q0 -10 -10 -10h-60q-10 0 -10 10v154q0 15 -25 15q-26 0 -26 -16v-153q0 -10 -10 -10h-60z" />
    <glyph glyph-name="jsuperior" unicode="&#x2b2;" 
d="M383 630q0 -8 -8 -8h-69q-8 0 -8 8v68q0 8 8 8h69q8 0 8 -8v-68zM380 340q0 -44 -31.5 -70t-75.5 -26t-75 27.5t-31 71.5q0 10 10 10h60q10 0 10 -10q0 -12 7 -19.5t19 -7.5q28 0 28 25v173q0 5 -5 5h-51q-10 0 -10 10v61q0 10 10 10h128q3 0 5 -2t2 -4v-254z" />
    <glyph glyph-name="wsuperior" unicode="&#x2b7;" 
d="M286 545q8 0 9 -8l24 -80q1 -2 3 -1.5t2 1.5l12 136q0 7 10 7h64q6 0 8 -4t1 -8l-37 -231q-1 -7 -10 -7h-64q-9 0 -10 7l-20 71q-1 3 -4.5 2.5t-3.5 -2.5l-16 -70q-1 -8 -10 -8h-64q-8 0 -10 8l-39 231q-1 4 1 7.5t9 3.5h63q10 0 10 -7l12 -136q0 -2 2.5 -1.5t2.5 1.5
l19 81q1 7 10 7h26z" />
    <glyph glyph-name="ysuperior" unicode="&#x2b8;" 
d="M273 466q2 -4 4.5 -4t3.5 4l27 126q1 8 10 8h66q6 0 8.5 -4t0.5 -8l-110 -331q-3 -7 -10 -7h-60q-6 0 -8.5 4t-0.5 8l33 86q2 5 2 7.5t-2 7.5l-81 226q-2 4 1 7.5t9 3.5h67q8 0 9 -7z" />
    <glyph glyph-name="apostrophemod" unicode="&#x2bc;" 
d="M218 540q-8 0 -14 6t-6 14v120q0 8 6 14t14 6h120q8 0 14 -6t6 -14v-117q0 -20 -6 -38t-16 -31l-64 -84q-5 -7 -12 -13.5t-22 -6.5h-20q-15 0 -22 12t1 26l54 99q3 5 -0.5 9t-8.5 4h-24z" />
    <glyph glyph-name="circumflex" unicode="&#x2c6;" 
d="M232 586q-4 -5 -12 -10.5t-19 -5.5h-95q-13 0 -14.5 10t3.5 15l119 123q5 5 10.5 8.5t19.5 3.5h62q13 0 18.5 -3.5t10.5 -8.5l119 -123q5 -5 3 -15t-16 -10h-94q-11 0 -19 5.5t-12 10.5l-35 44q-7 10 -14 0z" />
    <glyph glyph-name="caron" unicode="&#x2c7;" 
d="M266 670q7 -11 14 0l35 44q4 5 12 10.5t19 5.5h94q14 0 16 -10t-3 -15l-119 -123q-5 -5 -10.5 -8.5t-18.5 -3.5h-62q-14 0 -19.5 3.5t-10.5 8.5l-119 123q-5 5 -3.5 15t14.5 10h95q11 0 19 -5.5t12 -10.5z" />
    <glyph glyph-name="breve" unicode="&#x2d8;" 
d="M335 713q0 7 4.5 12t12.5 5h63q7 0 12 -5t5 -12q0 -29 -11 -55.5t-31.5 -46.5t-49.5 -32t-65 -12t-65 12t-50 32t-32 46.5t-11 55.5q0 7 5 12t12 5h63q8 0 12.5 -5t4.5 -12q0 -23 19 -39.5t42 -16.5t41.5 16.5t18.5 39.5z" />
    <glyph glyph-name="dotaccent" unicode="&#x2d9;" 
d="M345 586q0 -16 -16 -16h-108q-16 0 -16 16v108q0 6 4.5 11t11.5 5h108q7 0 11.5 -5t4.5 -11v-108z" />
    <glyph glyph-name="ring" unicode="&#x2da;" 
d="M159 670q0 24 9 45t25 36.5t37 24.5t45 9t45 -9t36.5 -24.5t24.5 -36.5t9 -45t-9 -45t-24.5 -37t-36.5 -25t-45 -9t-45 9t-37 25t-25 37t-9 45zM243 670q0 -14 9 -23t23 -9t23 9t9 23t-9 23t-23 9t-23 -9t-9 -23z" />
    <glyph glyph-name="ogonek" unicode="&#x2db;" 
d="M354 0q-25 0 -42.5 -17.5t-17.5 -42.5t17.5 -42.5t42.5 -17.5q8 0 14 -6t6 -14v-60q0 -8 -6 -14t-14 -6q-38 0 -69.5 9.5t-55 29t-36.5 50t-13 71.5q0 37 14.5 67t38.5 50.5t55.5 31.5t65.5 11q8 0 14 -6t6 -14v-60q0 -8 -6 -14t-14 -6z" />
    <glyph glyph-name="tilde" unicode="&#x2dc;" 
d="M365 684q19 0 29.5 6.5t16.5 14.5t15.5 4t9.5 -18v-60q0 -20 -20.5 -35.5t-50.5 -15.5q-24 0 -45.5 4t-43 8.5t-44 8.5t-47.5 4q-17 0 -27.5 -5.5t-18.5 -15.5q-6 -7 -15.5 -3.5t-9.5 17.5v60q0 20 20.5 35.5t50.5 15.5q24 0 45.5 -4t43 -8.5t43.5 -8.5t48 -4z" />
    <glyph glyph-name="hungarumlaut" unicode="&#x2dd;" 
d="M287 730q14 0 17 -9t-5 -18l-115 -121q-5 -5 -10.5 -8.5t-19.5 -3.5h-69q-10 0 -16 9t3 21l82 114q4 5 9.5 10.5t16.5 5.5h107zM494 730q14 0 17 -9t-5 -18l-115 -121q-5 -5 -10.5 -8.5t-19.5 -3.5h-69q-10 0 -16 9t3 21l82 114q4 5 9.5 10.5t16.5 5.5h107z" />
    <glyph glyph-name="xsuperior" unicode="&#x2e3;" 
d="M242 355q-2 -5 -11 -5h-67q-7 0 -9.5 4.5t1.5 11.5l63 105q5 7 0 15l-54 97q-4 7 -2 12t10 5h60q9 0 11 -5l28 -55q4 -7 8 0l28 55q1 2 3 3.5t8 1.5h60q8 0 10 -4.5t-2 -11.5l-56 -98q-5 -8 -1 -15l63 -105q4 -6 1.5 -11t-9.5 -5h-67q-9 0 -11 5l-28 61q-3 7 -7 -1z" />
    <glyph glyph-name="Delta" unicode="&#x394;" 
d="M37 0q-8 0 -14 6t-6 14v51q0 8 2.5 16.5t4.5 12.5l200 585q4 15 19 15h64q14 0 19 -15l200 -585q2 -4 4.5 -12.5t2.5 -16.5v-51q0 -8 -6 -14t-14 -6h-476zM391 118q8 0 4 10l-115 373q-2 4 -4 4h-2q-4 0 -4 -4l-115 -373q-4 -10 4 -10h232z" />
    <glyph glyph-name="Omega" unicode="&#x3a9;" 
d="M446 142q-8 -5 -6 -13.5t13 -8.5h57q8 0 14 -6t6 -14v-80q0 -8 -6 -14t-14 -6h-186q-8 0 -14 6t-6 14v109q0 7 3.5 20.5t21.5 25.5q17 12 32.5 30.5t27 45.5t18.5 64t7 86q0 38 -8.5 70t-26 55.5t-43.5 36.5t-61 13t-61 -13t-43 -36.5t-25.5 -55.5t-8.5 -70q0 -49 7 -86
t18.5 -64t27 -45.5t32.5 -30.5q18 -12 21.5 -25.5t3.5 -20.5v-109q0 -8 -6 -14t-14 -6h-186q-8 0 -14 6t-6 14v80q0 8 6 14t14 6h57q11 0 13.5 8t-5.5 13q-26 19 -44 50.5t-29.5 67.5t-17 73.5t-5.5 69.5q0 60 17 114.5t51 96t83 66t114 24.5q64 0 114 -24.5t83.5 -66
t51 -96t17.5 -114.5q0 -33 -5 -70.5t-16.5 -73t-29.5 -66.5t-44 -50z" />
    <glyph glyph-name="mu" unicode="&#x3bc;" 
d="M70 -180q0 166 0.5 330t0.5 330q0 8 5.5 14t13.5 6h60q7 0 16 0.5t16.5 -1t12.5 -6t5 -13.5v-306q0 -25 19.5 -42t55.5 -17q35 0 55 16t20 39v310q0 8 6 14t14 6h90q8 0 14 -6t6 -14v-460q0 -8 -6 -14t-14 -6h-50q-9 0 -14 3t-9 7t-9 7t-13 3q-10 0 -17.5 -4.5
l-17.5 -10.5t-23.5 -10.5t-34.5 -4.5q-14 0 -24 3.5t-18 7.5q-11 5 -20.5 0.5t-9.5 -21.5v-160q0 -8 -6 -14t-14 -6h-90q-8 0 -14 6t-6 14z" />
    <glyph glyph-name="pi" unicode="&#x3c0;" 
d="M443 370q-10 0 -10 -10v-170q0 -37 16 -54t60 -17q8 0 14 -6t6 -14v-79q0 -8 -6 -14t-14 -6q-100 0 -150 45t-50 145v170q0 10 -8 10h-67q-10 0 -10 -10v-340q0 -8 -6 -14t-14 -6h-85q-8 0 -14 6t-6 14v340q0 10 -10 10h-45q-8 0 -14 6t-6 14v90q0 8 6 14t14 6h460
q8 0 14 -6t6 -14v-90q0 -8 -6 -14t-14 -6h-61z" />
    <glyph glyph-name="Wgrave" unicode="&#x1e80;" 
d="M361 285q2 -7 7.5 -7t6.5 7l38 400q1 8 6.5 11.5t12.5 3.5h93q12 0 16.5 -6t3.5 -14l-71 -665q-1 -8 -6.5 -11.5t-12.5 -3.5h-120q-16 0 -19 15l-35 181q-1 5 -6 5t-6 -5l-35 -181q-3 -15 -19 -15h-120q-7 0 -12.5 3.5t-6.5 11.5l-71 665q-1 8 3.5 14t16.5 6h93
q7 0 12.5 -3.5t6.5 -11.5l39 -400q1 -7 6.5 -7t7.5 7l36 200q3 15 19 15h60q16 0 19 -15zM220 910q11 0 16.5 -5.5t9.5 -10.5l82 -114q9 -12 3 -21t-16 -9h-69q-14 0 -19.5 3.5t-10.5 8.5l-115 121q-8 9 -5 18t17 9h107z" />
    <glyph glyph-name="wgrave" unicode="&#x1e81;" 
d="M306 390q15 0 19 -15l37 -150q2 -5 6.5 -4.5t5.5 4.5l33 260q1 8 6.5 11.5t12.5 3.5h94q12 0 16.5 -7.5t2.5 -15.5l-79 -462q-3 -15 -19 -15h-109q-16 0 -19 15l-33 153q-2 5 -7.5 5t-6.5 -5l-28 -153q-3 -15 -19 -15h-109q-16 0 -19 15l-81 462q-2 8 2.5 15.5t16.5 7.5
h94q7 0 12.5 -3.5t6.5 -11.5l33 -260q1 -5 6 -4.5t6 4.5l32 150q3 15 19 15h68zM240 730q11 0 16.5 -5.5t9.5 -10.5l82 -114q9 -12 3 -21t-16 -9h-69q-14 0 -19.5 3.5t-10.5 8.5l-115 121q-8 9 -5 18t17 9h107z" />
    <glyph glyph-name="Wacute" unicode="&#x1e82;" 
d="M361 285q2 -7 7.5 -7t6.5 7l38 400q1 8 6.5 11.5t12.5 3.5h93q12 0 16.5 -6t3.5 -14l-71 -665q-1 -8 -6.5 -11.5t-12.5 -3.5h-120q-16 0 -19 15l-35 181q-1 5 -6 5t-6 -5l-35 -181q-3 -15 -19 -15h-120q-7 0 -12.5 3.5t-6.5 11.5l-71 665q-1 8 3.5 14t16.5 6h93
q7 0 12.5 -3.5t6.5 -11.5l39 -400q1 -7 6.5 -7t7.5 7l36 200q3 15 19 15h60q16 0 19 -15zM427 910q14 0 17 -9t-5 -18l-115 -121q-5 -5 -10.5 -8.5t-19.5 -3.5h-69q-10 0 -16 9t3 21l82 114q4 5 9.5 10.5t16.5 5.5h107z" />
    <glyph glyph-name="wacute" unicode="&#x1e83;" 
d="M306 390q15 0 19 -15l37 -150q2 -5 6.5 -4.5t5.5 4.5l33 260q1 8 6.5 11.5t12.5 3.5h94q12 0 16.5 -7.5t2.5 -15.5l-79 -462q-3 -15 -19 -15h-109q-16 0 -19 15l-33 153q-2 5 -7.5 5t-6.5 -5l-28 -153q-3 -15 -19 -15h-109q-16 0 -19 15l-81 462q-2 8 2.5 15.5t16.5 7.5
h94q7 0 12.5 -3.5t6.5 -11.5l33 -260q1 -5 6 -4.5t6 4.5l32 150q3 15 19 15h68zM417 730q14 0 17 -9t-5 -18l-115 -121q-5 -5 -10.5 -8.5t-19.5 -3.5h-69q-10 0 -16 9t3 21l82 114q4 5 9.5 10.5t16.5 5.5h107z" />
    <glyph glyph-name="Wdieresis" unicode="&#x1e84;" 
d="M361 285q2 -7 7.5 -7t6.5 7l38 400q1 8 6.5 11.5t12.5 3.5h93q12 0 16.5 -6t3.5 -14l-71 -665q-1 -8 -6.5 -11.5t-12.5 -3.5h-120q-16 0 -19 15l-35 181q-1 5 -6 5t-6 -5l-35 -181q-3 -15 -19 -15h-120q-7 0 -12.5 3.5t-6.5 11.5l-71 665q-1 8 3.5 14t16.5 6h93
q7 0 12.5 -3.5t6.5 -11.5l39 -400q1 -7 6.5 -7t7.5 7l36 200q3 15 19 15h60q16 0 19 -15zM240 780q0 -8 -6 -14t-14 -6h-90q-8 0 -14 6t-6 14v90q0 8 6 14t14 6h90q8 0 14 -6t6 -14v-90zM440 780q0 -8 -6 -14t-14 -6h-90q-8 0 -14 6t-6 14v90q0 8 6 14t14 6h90q8 0 14 -6
t6 -14v-90z" />
    <glyph glyph-name="wdieresis" unicode="&#x1e85;" 
d="M306 390q15 0 19 -15l37 -150q2 -5 6.5 -4.5t5.5 4.5l33 260q1 8 6.5 11.5t12.5 3.5h94q12 0 16.5 -7.5t2.5 -15.5l-79 -462q-3 -15 -19 -15h-109q-16 0 -19 15l-33 153q-2 5 -7.5 5t-6.5 -5l-28 -153q-3 -15 -19 -15h-109q-16 0 -19 15l-81 462q-2 8 2.5 15.5t16.5 7.5
h94q7 0 12.5 -3.5t6.5 -11.5l33 -260q1 -5 6 -4.5t6 4.5l32 150q3 15 19 15h68zM240 600q0 -8 -6 -14t-14 -6h-90q-8 0 -14 6t-6 14v90q0 8 6 14t14 6h90q8 0 14 -6t6 -14v-90zM440 600q0 -8 -6 -14t-14 -6h-90q-8 0 -14 6t-6 14v90q0 8 6 14t14 6h90q8 0 14 -6t6 -14v-90z
" />
    <glyph glyph-name="Ygrave" unicode="&#x1ef2;" 
d="M377 685q5 15 19 15h110q10 0 15.5 -8.5t0.5 -19.5l-177 -446v-206q0 -8 -6 -14t-14 -6h-100q-8 0 -14 6t-6 14v206l-177 446q-5 11 0.5 19.5t15.5 8.5h110q14 0 19 -15l96 -277q1 -4 5 -4h2q4 0 5 4zM220 910q11 0 16.5 -5.5t9.5 -10.5l82 -114q9 -12 3 -21t-16 -9h-69
q-14 0 -19.5 3.5t-10.5 8.5l-115 121q-8 9 -5 18t17 9h107z" />
    <glyph glyph-name="ygrave" unicode="&#x1ef3;" 
d="M273 201q2 -6 6 -6t6 6l81 284q4 15 19 15h101q12 0 17 -7.5t2 -15.5l-235 -662q-5 -15 -19 -15h-92q-12 0 -17 7.5t-2 15.5l70 187q2 7 2.5 10.5t-2.5 11.5l-166 445q-3 8 2 15.5t17 7.5h103q14 0 19 -15zM240 730q11 0 16.5 -5.5t9.5 -10.5l82 -114q9 -12 3 -21t-16 -9
h-69q-14 0 -19.5 3.5t-10.5 8.5l-115 121q-8 9 -5 18t17 9h107z" />
    <glyph glyph-name="endash" unicode="&#x2013;" 
d="M480 325q8 0 14 -6t6 -14v-89q0 -8 -6 -14t-14 -6h-410q-8 0 -14 6t-6 14v89q0 8 6 14t14 6h410z" />
    <glyph glyph-name="emdash" unicode="&#x2014;" 
d="M554 325q8 0 14 -6t6 -14v-89q0 -8 -6 -14t-14 -6h-557q-8 0 -14 6t-6 14v89q0 8 6 14t14 6h557z" />
    <glyph glyph-name="quoteleft" unicode="&#x2018;" 
d="M332 550q8 0 14 -6t6 -14v-120q0 -8 -6 -14t-14 -6h-120q-8 0 -14 6t-6 14v117q0 20 6 38t16 31l64 84q5 7 12 13.5t22 6.5h20q15 0 22 -12t-1 -26l-54 -99q-3 -5 0.5 -9t8.5 -4h24z" />
    <glyph glyph-name="quoteright" unicode="&#x2019;" 
d="M218 540q-8 0 -14 6t-6 14v120q0 8 6 14t14 6h120q8 0 14 -6t6 -14v-117q0 -20 -6 -38t-16 -31l-64 -84q-5 -7 -12 -13.5t-22 -6.5h-20q-15 0 -22 12t1 26l54 99q3 5 -0.5 9t-8.5 4h-24z" />
    <glyph glyph-name="quotesinglbase" unicode="&#x201a;" 
d="M217 0q-8 0 -14 6t-6 14v120q0 8 6 14t14 6h120q8 0 14 -6t6 -14v-117q0 -20 -6 -38t-16 -31l-64 -84q-5 -7 -12 -13.5t-22 -6.5h-20q-15 0 -22 12t1 26l54 99q3 5 -0.5 9t-8.5 4h-24z" />
    <glyph glyph-name="quotedblleft" unicode="&#x201c;" 
d="M222 550q8 0 14 -6t6 -14v-120q0 -8 -6 -14t-14 -6h-120q-8 0 -14 6t-6 14v117q0 20 6 38t16 31l64 84q5 7 12 13.5t22 6.5h20q15 0 22 -12t-1 -26l-54 -99q-3 -5 0.5 -9t8.5 -4h24zM442 550q8 0 14 -6t6 -14v-120q0 -8 -6 -14t-14 -6h-120q-8 0 -14 6t-6 14v117
q0 20 6 38t16 31l64 84q5 7 12 13.5t22 6.5h20q15 0 22 -12t-1 -26l-54 -99q-3 -5 0.5 -9t8.5 -4h24z" />
    <glyph glyph-name="quotedblright" unicode="&#x201d;" 
d="M326 540q-8 0 -14 6t-6 14v120q0 8 6 14t14 6h120q8 0 14 -6t6 -14v-117q0 -20 -6 -38t-16 -31l-64 -84q-5 -7 -12 -13.5t-22 -6.5h-20q-15 0 -22 12t1 26l54 99q3 5 -0.5 9t-8.5 4h-24zM106 540q-8 0 -14 6t-6 14v120q0 8 6 14t14 6h120q8 0 14 -6t6 -14v-117
q0 -20 -6 -38t-16 -31l-64 -84q-5 -7 -12 -13.5t-22 -6.5h-20q-15 0 -22 12t1 26l54 99q3 5 -0.5 9t-8.5 4h-24z" />
    <glyph glyph-name="quotedblbase" unicode="&#x201e;" 
d="M327 0q-8 0 -14 6t-6 14v120q0 8 6 14t14 6h120q8 0 14 -6t6 -14v-117q0 -20 -6 -38t-16 -31l-64 -84q-5 -7 -12 -13.5t-22 -6.5h-20q-15 0 -22 12t1 26l54 99q3 5 -0.5 9t-8.5 4h-24zM107 0q-8 0 -14 6t-6 14v120q0 8 6 14t14 6h120q8 0 14 -6t6 -14v-117q0 -20 -6 -38
t-16 -31l-64 -84q-5 -7 -12 -13.5t-22 -6.5h-20q-15 0 -22 12t1 26l54 99q3 5 -0.5 9t-8.5 4h-24z" />
    <glyph glyph-name="dagger" unicode="&#x2020;" 
d="M335 -100q0 -8 -6 -14t-14 -6h-80q-8 0 -14 6t-6 14v460q0 10 -10 10h-130q-8 0 -14 6t-6 14v80q0 8 6 14t14 6h130q10 0 10 10v180q0 8 6 14t14 6h80q8 0 14 -6t6 -14v-180q0 -10 10 -10h130q8 0 14 -6t6 -14v-80q0 -8 -6 -14t-14 -6h-130q-10 0 -10 -10v-460z" />
    <glyph glyph-name="daggerdbl" unicode="&#x2021;" 
d="M80 158q-8 0 -14 6t-6 14v78q0 8 6 14t14 6h128q10 0 10 10v128q0 10 -10 10h-128q-8 0 -14 6t-6 14v78q0 8 6 14t14 6h128q10 0 10 10v128q0 8 6 14t14 6h74q8 0 14 -6t6 -14v-128q0 -10 10 -10h128q8 0 14 -6t6 -14v-78q0 -8 -6 -14t-14 -6h-128q-10 0 -10 -10v-128
q0 -10 10 -10h128q8 0 14 -6t6 -14v-78q0 -8 -6 -14t-14 -6h-128q-10 0 -10 -10v-128q0 -8 -6 -14t-14 -6h-74q-8 0 -14 6t-6 14v128q0 10 -10 10h-128z" />
    <glyph glyph-name="bullet" unicode="&#x2022;" 
d="M366 194q0 -8 -6 -14t-14 -6h-143q-8 0 -14 6t-6 14v143q0 8 6 14t14 6h143q8 0 14 -6t6 -14v-143z" />
    <glyph glyph-name="ellipsis" unicode="&#x2026;" 
d="M151 20q0 -8 -6 -14t-14 -6h-110q-8 0 -14 6t-6 14v120q0 8 6 14t14 6h110q8 0 14 -6t6 -14v-120zM549 20q0 -8 -6 -14t-14 -6h-110q-8 0 -14 6t-6 14v120q0 8 6 14t14 6h110q8 0 14 -6t6 -14v-120zM351 20q0 -8 -6 -14t-14 -6h-110q-8 0 -14 6t-6 14v120q0 8 6 14t14 6
h110q8 0 14 -6t6 -14v-120z" />
    <glyph glyph-name="perthousand" unicode="&#x2030;" 
d="M126 15q-6 -15 -21 -15h-47q-10 0 -15.5 8.5t-0.5 19.5l264 657q6 15 22 15h48q10 0 15.5 -8.5t0.5 -19.5zM307 150q0 -21 6 -40t23 -19t23 19t6 40t-6 40t-23 19t-23 -19t-6 -40zM229 150q0 24 4 49t15.5 45t32.5 33t55 13t55 -13t32.5 -33t15.5 -45t4 -49t-4 -49
t-15.5 -45t-32.5 -33t-55 -13t-55 13t-32.5 33t-15.5 45t-4 49zM71 550q0 -21 6 -40t23 -19t23 19t6 40t-6 40t-23 19t-23 -19t-6 -40zM-7 550q0 24 4 49t15.5 45t32.5 33t55 13t55 -13t32.5 -33t15.5 -45t4 -49t-4 -49t-15.5 -45t-32.5 -33t-55 -13t-55 13t-32.5 33
t-15.5 45t-4 49zM423 440q0 -21 6 -40t23 -19t23 19t6 40t-6 40t-23 19t-23 -19t-6 -40zM345 440q0 24 4 49t15.5 45t32.5 33t55 13t55 -13t32.5 -33t15.5 -45t4 -49t-4 -49t-15.5 -45t-32.5 -33t-55 -13t-55 13t-32.5 33t-15.5 45t-4 49z" />
    <glyph glyph-name="guilsinglleft" unicode="&#x2039;" 
d="M262 435q2 4 8 9.5t17 5.5h80q14 0 19.5 -8.5t-3.5 -24.5l-85 -145q-8 -11 0 -24l85 -145q9 -16 3.5 -24.5t-19.5 -8.5h-80q-11 0 -17 5.5t-8 9.5l-96 161q-5 8 -5 14t5 14z" />
    <glyph glyph-name="guilsinglright" unicode="&#x203a;" 
d="M383 274q5 -8 5 -14t-5 -14l-96 -161q-2 -4 -8 -9.5t-17 -5.5h-80q-14 0 -19.5 8.5t3.5 24.5l85 145q8 13 0 24l-85 145q-9 16 -3.5 24.5t19.5 8.5h80q11 0 17 -5.5t8 -9.5z" />
    <glyph glyph-name="fraction" unicode="&#x2044;" horiz-adv-x="0" 
d="M-161 15q-9 -15 -21 -15h-67q-10 0 -16.5 8.5t0.5 19.5l427 657q9 15 22 15h65q10 0 16.5 -9t-0.5 -19z" />
    <glyph glyph-name="zerosuperior" unicode="&#x2070;" 
d="M160 591q3 24 13 45t25 37t35 25t42 9q23 0 43 -10t35 -26.5t24.5 -37.5t11.5 -42q7 -66 0 -132q-3 -24 -13 -45t-25 -37t-34.5 -25t-41.5 -9q-24 0 -44 10t-35 26.5t-24.5 37.5t-11.5 42q-8 66 0 132zM275 622q-12 0 -19 -9t-8 -18q-6 -70 0 -140q2 -13 10 -19.5
t17 -6.5q11 0 18 8.5t8 17.5q6 70 0 140q-2 13 -10 20t-16 7z" />
    <glyph glyph-name="foursuperior" unicode="&#x2074;" 
d="M381 489q10 0 10 -10v-58q0 -10 -10 -10h-14q-5 0 -5 -5v-46q0 -10 -10 -10h-61q-10 0 -10 10v46q0 5 -5 5h-108q-10 0 -10 10v74q0 5 2.5 10t5.5 10l105 178q3 7 11 7h70q10 0 10 -10v-196q0 -5 5 -5h14zM239 496q-4 -7 4 -7h33q5 0 5 5v68q0 3 -2.5 3.5t-4.5 -1.5z" />
    <glyph glyph-name="fivesuperior" unicode="&#x2075;" 
d="M251 615q-5 0 -5 -5v-25q0 -6 3 -6t5 1q3 2 9 4t17 2q51 0 81 -31.5t31 -87.5q0 -22 -7 -44t-21.5 -40t-37 -29t-52.5 -11q-24 0 -45 5.5t-37 18t-25.5 32.5t-9.5 50q0 10 10 10h63q10 0 10 -10t9.5 -15t20.5 -5q23 0 30 12.5t7 25.5t-6 27.5t-27 14.5q-8 0 -14 -2
t-10 -4q-2 -2 -5.5 -3.5t-8.5 -1.5h-65q-10 0 -10 10v182q0 10 10 10h195q10 0 10 -10v-65q0 -10 -10 -10h-115z" />
    <glyph glyph-name="sixsuperior" unicode="&#x2076;" 
d="M293 583q51 0 76 -34t25 -85q0 -26 -8.5 -48t-24 -38t-37 -25.5t-48.5 -9.5q-24 0 -44.5 9t-35.5 24t-24.5 35.5t-12.5 43.5q-4 33 -4 70t4 70q3 23 12.5 43.5t25 35.5t35 24t42.5 9q21 0 42 -7.5t38 -21t27.5 -31.5t10.5 -39q0 -10 -10 -10h-50q-14 0 -18 9
q-5 8 -12.5 15.5t-22.5 7.5q-14 0 -27 -9t-13 -23q0 -8 2 -14.5t11 -6.5q8 0 17.5 3t23.5 3zM276 424q19 0 27.5 12.5t8.5 31.5q0 20 -10 30t-26 10q-20 0 -28 -13t-8 -27q0 -23 10.5 -33.5t25.5 -10.5z" />
    <glyph glyph-name="sevensuperior" unicode="&#x2077;" 
d="M298 611q2 5 -4 5h-120q-10 0 -10 10v64q0 10 10 10h201q10 0 10 -10v-80q0 -3 -3 -10l-108 -243q-4 -7 -10 -7h-71q-7 0 -9 4.5t0 7.5z" />
    <glyph glyph-name="eightsuperior" unicode="&#x2078;" 
d="M275 420q17 0 27 11.5t10 26.5t-10 25t-27 10t-27 -10t-10 -25t10 -26.5t27 -11.5zM275 562q14 0 23.5 9.5t9.5 23.5q0 12 -9.5 23t-23.5 11t-23.5 -11t-9.5 -23q0 -14 9.5 -23.5t23.5 -9.5zM274 707q24 0 45 -8.5t36.5 -23t24.5 -34t9 -41.5q0 -19 -7.5 -36t-18.5 -31
q-6 -6 0 -10q13 -11 21.5 -30.5t8.5 -39.5q0 -23 -9.5 -43t-25.5 -35t-37.5 -23.5t-45.5 -8.5t-45.5 8.5t-37.5 23.5t-25.5 35t-9.5 43q0 20 7.5 39.5t21.5 30.5q6 4 -1 10q-16 16 -21 32t-5 35q0 22 9 41.5t25 34t37 23t44 8.5z" />
    <glyph glyph-name="ninesuperior" unicode="&#x2079;" 
d="M256 467q-51 0 -76 34t-25 85q0 25 8.5 47.5t24 38.5t37 25.5t48.5 9.5q24 0 44.5 -9t35.5 -24t24.5 -35.5t12.5 -43.5q4 -33 4 -70t-4 -70q-3 -23 -12.5 -43.5t-25 -35.5t-35.5 -24t-42 -9q-21 0 -42 7.5t-38 21t-27.5 31.5t-10.5 39q0 10 10 10h50q13 0 18 -9
q5 -8 12.5 -15.5t22.5 -7.5q14 0 27 9t13 23q0 8 -2 14.5t-11 6.5q-8 0 -17.5 -3t-23.5 -3zM273 626q-19 0 -27.5 -12.5t-8.5 -31.5q0 -20 10 -30t26 -10q20 0 28 13t8 27q0 23 -10.5 33.5t-25.5 10.5z" />
    <glyph glyph-name="plussuperior" unicode="&#x207a;" 
d="M230 515q5 0 5 5v55q0 10 10 10h59q10 0 10 -10v-55q0 -5 5 -5h56q10 0 10 -10v-59q0 -10 -10 -10h-56q-5 0 -5 -5v-56q0 -10 -10 -10h-59q-10 0 -10 10v56q0 5 -5 5h-55q-10 0 -10 10v59q0 10 10 10h55z" />
    <glyph glyph-name="minussuperior" unicode="&#x207b;" 
d="M383 519q10 0 10 -10v-57q0 -10 -10 -10h-216q-10 0 -10 10v57q0 10 10 10h216z" />
    <glyph glyph-name="equalsuperior" unicode="&#x207c;" 
d="M175 489q-10 0 -10 10v57q0 10 10 10h200q10 0 10 -10v-57q0 -10 -10 -10h-200zM175 384q-10 0 -10 10v57q0 10 10 10h200q10 0 10 -10v-57q0 -10 -10 -10h-200z" />
    <glyph glyph-name="parenleftsuperior" unicode="&#x207d;" 
d="M345 384q10 0 10 -10v-59q0 -10 -10 -10h-36q-45 0 -76 28t-37 77q-2 15 -3 41.5t-1 56t1 56t3 41.5q3 20 11.5 39t23 33.5t34 23.5t44.5 9h38q10 0 10 -10v-59q0 -10 -10 -10h-38q-11 0 -19.5 -2.5t-13.5 -23.5q-3 -15 -5 -42t-2 -55.5t2 -55.5t5 -42t9.5 -20.5
t23.5 -5.5h36z" />
    <glyph glyph-name="parenrightsuperior" unicode="&#x207e;" 
d="M241 384q16 0 22.5 5.5t9.5 20.5t5 42t2 55.5t-2 55.5t-5 42q-5 21 -13 23.5t-19 2.5h-39q-10 0 -10 10v59q0 10 10 10h39q25 0 44.5 -9t33.5 -23.5t22.5 -33.5t11.5 -39q2 -15 3 -41.5t1 -56t-1 -56t-3 -41.5q-6 -49 -36.5 -77t-75.5 -28h-37q-10 0 -10 10v59
q0 10 10 10h37z" />
    <glyph glyph-name="nsuperior" unicode="&#x207f;" 
d="M232 588q11 0 23.5 9t32.5 9q40 0 65.5 -27t25.5 -65v-154q0 -10 -10 -10h-60q-10 0 -10 10v155q0 5 -5.5 13t-19.5 8q-13 0 -18.5 -8t-5.5 -11v-157q0 -10 -10 -10h-60q-10 0 -10 10v230q0 10 10 10h27q7 0 10 -3l5 -5t3.5 -3t6.5 -1z" />
    <glyph glyph-name="zeroinferior" unicode="&#x2080;" 
d="M160 59q3 24 13 45t25 37t35 25t42 9q23 0 43 -10t35 -26.5t24.5 -37.5t11.5 -42q7 -66 0 -132q-3 -24 -13 -45t-25 -37t-34.5 -25t-41.5 -9q-24 0 -44 10t-35 26.5t-24.5 37.5t-11.5 42q-8 66 0 132zM275 90q-12 0 -19 -9t-8 -18q-6 -70 0 -140q2 -13 10 -19.5t17 -6.5
q11 0 18 8.5t8 17.5q6 70 0 140q-2 13 -10 20t-16 7z" />
    <glyph glyph-name="oneinferior" unicode="&#x2081;" 
d="M243 50q0 7 -5 7.5t-8 -2.5l-53 -40q-7 -5 -14.5 -1t-7.5 13v55q0 6 -0.5 10.5t6.5 12.5l48 46q5 5 13.5 11t22.5 6h74q10 0 10 -10v-250q0 -5 5 -5h52q10 0 10 -10v-65q0 -10 -10 -10h-216q-10 0 -10 10v65q0 10 10 10h68q5 0 5 5v142z" />
    <glyph glyph-name="twoinferior" unicode="&#x2082;" 
d="M303 70q0 9 -7 16.5t-20 7.5q-18 0 -24 -9.5t-6 -20.5v-9q0 -10 -10 -10h-64q-4 0 -7 3.5t-3 6.5v8q0 24 9 44.5t25 35.5t37 23.5t44 8.5q48 0 81 -27.5t33 -75.5q0 -23 -13 -43.5t-23 -30.5l-84 -84q-2 -2 -2 -6.5t8 -4.5h109q5 0 7.5 -3.5t2.5 -6.5v-65q0 -10 -10 -10
h-217q-10 0 -10 10v79q0 8 4 12l107 106q15 14 24 25t9 20z" />
    <glyph glyph-name="threeinferior" unicode="&#x2083;" 
d="M308 -70q0 18 -12 25.5t-22 7.5h-6q-10 0 -10 10v42q0 10 10 10h6q11 0 21.5 8t10.5 25q0 15 -8.5 24t-22.5 9q-13 0 -21.5 -8.5t-8.5 -19.5v-8q0 -10 -10 -10h-64q-10 0 -10 10v8q0 23 9 43.5t25 35.5t36.5 24t43.5 9t43.5 -9t36 -24t24.5 -35.5t9 -43.5q0 -18 -7 -35
t-17 -29q-4 -5 0 -7q14 -11 20.5 -29.5t6.5 -36.5q0 -24 -9 -45t-25 -36.5t-37 -24.5t-45 -9t-45 9t-36.5 24.5t-25 36.5t-9.5 45v6q0 10 10 10h63q10 0 10 -10v-6q0 -14 9 -22.5t24 -8.5t24 9t9 26z" />
    <glyph glyph-name="fourinferior" unicode="&#x2084;" 
d="M381 -43q10 0 10 -10v-58q0 -10 -10 -10h-14q-5 0 -5 -5v-46q0 -10 -10 -10h-61q-10 0 -10 10v46q0 5 -5 5h-108q-10 0 -10 10v74q0 5 2.5 10t5.5 10l105 178q3 7 11 7h70q10 0 10 -10v-196q0 -5 5 -5h14zM239 -36q-4 -7 4 -7h33q5 0 5 5v68q0 3 -2.5 3.5t-4.5 -1.5z" />
    <glyph glyph-name="fiveinferior" unicode="&#x2085;" 
d="M251 83q-5 0 -5 -5v-25q0 -6 3 -6t5 1q3 2 9 4t17 2q51 0 81 -31.5t31 -87.5q0 -22 -7 -44t-21.5 -40t-37 -29t-52.5 -11q-24 0 -45 5.5t-37 18t-25.5 32.5t-9.5 50q0 10 10 10h63q10 0 10 -10t9.5 -15t20.5 -5q23 0 30 12.5t7 25.5t-6 27.5t-27 14.5q-8 0 -14 -2t-10 -4
q-2 -2 -5.5 -3.5t-8.5 -1.5h-65q-10 0 -10 10v182q0 10 10 10h195q10 0 10 -10v-65q0 -10 -10 -10h-115z" />
    <glyph glyph-name="sixinferior" unicode="&#x2086;" 
d="M293 51q51 0 76 -34t25 -85q0 -26 -8.5 -48t-24 -38t-37 -25.5t-48.5 -9.5q-24 0 -44.5 9t-35.5 24t-24.5 35.5t-12.5 43.5q-4 33 -4 70t4 70q3 23 12.5 43.5t25 35.5t35 24t42.5 9q21 0 42 -7.5t38 -21t27.5 -31.5t10.5 -39q0 -10 -10 -10h-50q-14 0 -18 9
q-5 8 -12.5 15.5t-22.5 7.5q-14 0 -27 -9t-13 -23q0 -8 2 -14.5t11 -6.5q8 0 17.5 3t23.5 3zM276 -108q19 0 27.5 12.5t8.5 31.5q0 20 -10 30t-26 10q-20 0 -28 -13t-8 -27q0 -23 10.5 -33.5t25.5 -10.5z" />
    <glyph glyph-name="seveninferior" unicode="&#x2087;" 
d="M298 79q2 5 -4 5h-120q-10 0 -10 10v64q0 10 10 10h201q10 0 10 -10v-80q0 -3 -3 -10l-108 -243q-4 -7 -10 -7h-71q-7 0 -9 4.5t0 7.5z" />
    <glyph glyph-name="eightinferior" unicode="&#x2088;" 
d="M275 -112q17 0 27 11.5t10 26.5t-10 25t-27 10t-27 -10t-10 -25t10 -26.5t27 -11.5zM275 30q14 0 23.5 9.5t9.5 23.5q0 12 -9.5 23t-23.5 11t-23.5 -11t-9.5 -23q0 -14 9.5 -23.5t23.5 -9.5zM274 175q24 0 45 -8.5t36.5 -23t24.5 -34t9 -41.5q0 -19 -7.5 -36t-18.5 -31
q-6 -6 0 -10q13 -11 21.5 -30.5t8.5 -39.5q0 -23 -9.5 -43t-25.5 -35t-37.5 -23.5t-45.5 -8.5t-45.5 8.5t-37.5 23.5t-25.5 35t-9.5 43q0 20 7.5 39.5t21.5 30.5q6 4 -1 10q-16 16 -21 32t-5 35q0 22 9 41.5t25 34t37 23t44 8.5z" />
    <glyph glyph-name="nineinferior" unicode="&#x2089;" 
d="M256 -65q-51 0 -76 34t-25 85q0 25 8.5 47.5t24 38.5t37 25.5t48.5 9.5q24 0 44.5 -9t35.5 -24t24.5 -35.5t12.5 -43.5q4 -33 4 -70t-4 -70q-3 -23 -12.5 -43.5t-25 -35.5t-35.5 -24t-42 -9q-21 0 -42 7.5t-38 21t-27.5 31.5t-10.5 39q0 10 10 10h50q13 0 18 -9
q5 -8 12.5 -15.5t22.5 -7.5q14 0 27 9t13 23q0 8 -2 14.5t-11 6.5q-8 0 -17.5 -3t-23.5 -3zM273 94q-19 0 -27.5 -12.5t-8.5 -31.5q0 -20 10 -30t26 -10q20 0 28 13t8 27q0 23 -10.5 33.5t-25.5 10.5z" />
    <glyph glyph-name="parenleftinferior" unicode="&#x208d;" 
d="M345 -148q10 0 10 -10v-59q0 -10 -10 -10h-36q-45 0 -76 28t-37 77q-2 15 -3 41.5t-1 56t1 56t3 41.5q3 20 11.5 39t23 33.5t34 23.5t44.5 9h38q10 0 10 -10v-59q0 -10 -10 -10h-38q-11 0 -19.5 -2.5t-13.5 -23.5q-3 -15 -5 -42t-2 -55.5t2 -55.5t5 -42t9.5 -20.5
t23.5 -5.5h36z" />
    <glyph glyph-name="parenrightinferior" unicode="&#x208e;" 
d="M241 -148q16 0 22.5 5.5t9.5 20.5t5 42t2 55.5t-2 55.5t-5 42q-5 21 -13 23.5t-19 2.5h-39q-10 0 -10 10v59q0 10 10 10h39q25 0 44.5 -9t33.5 -23.5t22.5 -33.5t11.5 -39q2 -15 3 -41.5t1 -56t-1 -56t-3 -41.5q-6 -49 -36.5 -77t-75.5 -28h-37q-10 0 -10 10v59
q0 10 10 10h37z" />
    <glyph glyph-name="Euro" unicode="&#x20ac;" 
d="M401 218q1 8 6.5 14t13.5 6h100q8 0 14 -6t6 -14q0 -50 -17.5 -92t-49 -72.5t-75.5 -47.5t-96 -17t-93.5 17.5t-72 48t-49 70.5t-23.5 85q-2 14 -3.5 17t-7.5 3h-24q-8 0 -14 6t-6 14v62q0 8 6 14t14 6h19q5 0 6.5 3t1.5 5v39q0 5 -6 5h-21q-8 0 -14 6t-6 14v62q0 8 6 14
t14 6h26q3 0 6 2t3 5q6 44 24.5 83.5t49 69.5t72 47.5t92.5 17.5q52 0 96 -17t75.5 -47.5t49 -72.5t17.5 -92q0 -8 -6 -14t-14 -6h-60q-8 0 -18 -1t-19 0.5t-15.5 5.5t-7.5 15q-3 39 -29 63.5t-69 24.5q-45 0 -68 -22.5t-29 -54.5q-1 -7 5 -7h109q8 0 14 -6t6 -14v-62
q0 -8 -6 -14t-14 -6h-114q-8 0 -8 -8v-34q0 -10 9 -10h113q8 0 14 -6t6 -14v-62q0 -8 -6 -14t-14 -6h-105q-5 0 -7.5 -4t-1.5 -16q3 -33 27 -56.5t70 -23.5q43 0 69 24.5t29 63.5z" />
    <glyph glyph-name="afii61289" unicode="&#x2113;" 
d="M80 270q-8 0 -14 6t-6 14v70q0 8 6 14t14 6h48v120q0 40 14 76t39 63.5t59 44t73 16.5q44 0 77.5 -15t56.5 -40.5t34.5 -60.5t11.5 -74q0 -46 -15.5 -89.5t-45.5 -77t-75 -54t-104 -20.5v-44q0 -39 8.5 -62t25 -34.5t39.5 -15t53 -3.5h36q8 0 14 -6t6 -14v-80
q0 -8 -6 -14t-14 -6h-36q-68 0 -115.5 14.5t-77.5 44t-44 73t-14 101.5v47h-48zM253 380q115 0 115 130q0 30 -13.5 50t-41.5 20t-44 -20t-16 -60v-120z" />
    <glyph glyph-name="afii61352" unicode="&#x2116;" 
d="M186 360q1 -3 4.5 -2.5t3.5 4.5v318q0 8 6 14t14 6h51q8 0 14 -6t6 -14v-660q0 -8 -6 -14t-14 -6h-73q-8 0 -13.5 3t-7.5 14l-57 335q-1 3 -4.5 2.5t-3.5 -4.5v-330q0 -8 -6 -14t-14 -6h-51q-8 0 -14 6t-6 14v660q0 8 6 14t14 6h73q8 0 13.5 -3t7.5 -14zM346 0
q-8 0 -14 6t-6 14v63q0 8 6 14t14 6h154q8 0 14 -6t6 -14v-63q0 -8 -6 -14t-14 -6h-154zM421 321q-28 0 -35 -26q-2 -8 -2 -25t2 -25q6 -24 35 -24t35 24q2 8 2 25t-2 25q-7 26 -35 26zM421 409q48 0 77 -21.5t36 -76.5q1 -8 1.5 -19t0.5 -22.5t-0.5 -22t-1.5 -17.5
q-3 -26 -14 -44.5t-26.5 -30t-34.5 -17t-38 -5.5t-38 5.5t-34.5 17t-26.5 30t-14 44.5q-1 7 -1.5 17.5t-0.5 22t0.5 22.5t1.5 19q7 55 36 76.5t77 21.5z" />
    <glyph glyph-name="trademark" unicode="&#x2122;" 
d="M24 612q-10 0 -10 10v68q0 10 10 10h200q10 0 10 -10v-68q0 -10 -10 -10h-51q-5 0 -5 -5v-247q0 -10 -10 -10h-68q-10 0 -10 10v247q0 5 -5 5h-51zM391 600q2 -4 4.5 -4t4.5 4l28 91q3 9 11 9h79q10 0 10 -10v-330q0 -10 -10 -10h-59q-10 0 -10 10v182q0 2 -1.5 2
t-2.5 -2l-24 -69q-3 -8 -10 -8h-30q-7 0 -10 8l-24 69q-1 2 -2.5 2t-1.5 -2v-182q0 -10 -10 -10h-59q-10 0 -10 10v330q0 10 10 10h79q7 0 10 -9z" />
    <glyph glyph-name="uni2126" unicode="&#x2126;" 
d="M446 142q-8 -5 -6 -13.5t13 -8.5h57q8 0 14 -6t6 -14v-80q0 -8 -6 -14t-14 -6h-186q-8 0 -14 6t-6 14v109q0 7 3.5 20.5t21.5 25.5q17 12 32.5 30.5t27 45.5t18.5 64t7 86q0 38 -8.5 70t-26 55.5t-43.5 36.5t-61 13t-61 -13t-43 -36.5t-25.5 -55.5t-8.5 -70q0 -49 7 -86
t18.5 -64t27 -45.5t32.5 -30.5q18 -12 21.5 -25.5t3.5 -20.5v-109q0 -8 -6 -14t-14 -6h-186q-8 0 -14 6t-6 14v80q0 8 6 14t14 6h57q11 0 13.5 8t-5.5 13q-26 19 -44 50.5t-29.5 67.5t-17 73.5t-5.5 69.5q0 60 17 114.5t51 96t83 66t114 24.5q64 0 114 -24.5t83.5 -66
t51 -96t17.5 -114.5q0 -33 -5 -70.5t-16.5 -73t-29.5 -66.5t-44 -50z" />
    <glyph glyph-name="estimated" unicode="&#x212e;" 
d="M286 100q33 0 55.5 9t42.5 34q7 8 11.5 12.5t11.5 4.5h76q8 0 13 -4.5t4 -15.5q-3 -33 -20.5 -60.5t-46 -47.5t-66.5 -31t-81 -11q-74 0 -124 30.5t-78 81.5t-35.5 118t4.5 141q9 50 27 90.5t46.5 69t68 44t91.5 15.5q40 0 80 -11.5t72 -40t51.5 -75.5t19.5 -119v-63
q0 -8 -6 -14t-14 -6h-309q-10 0 -10 -10q8 -77 36.5 -109t79.5 -32zM173 362q0 -10 10 -10h196q10 0 10 10q0 51 -25 79.5t-80 28.5q-45 0 -73.5 -22t-35.5 -62q-1 -6 -1.5 -12t-0.5 -12z" />
    <glyph glyph-name="arrowleft" unicode="&#x2190;" 
d="M502 312q8 0 14 -6t6 -14v-77q0 -8 -6 -14t-14 -6h-292l67 -62l10.5 -10.5t4.5 -12.5v-82q0 -12 -11 -17.5t-20 3.5l-225 225q-14 14 -1 27l233 233q8 8 16 3.5t8 -13.5v-85q0 -14 -12 -25l-72 -67h294z" />
    <glyph glyph-name="arrowup" unicode="&#x2191;" 
d="M214 372l-62 -67l-10.5 -10.5t-12.5 -4.5h-82q-12 0 -17.5 11t3.5 20l225 225q14 14 27 1l233 -233q8 -8 3.5 -16t-13.5 -8h-85q-14 0 -25 12l-67 72v-354q0 -8 -6 -14t-14 -6h-77q-8 0 -14 6t-6 14v352z" />
    <glyph glyph-name="arrowright" unicode="&#x2192;" 
d="M342 312l-72 67q-12 11 -12 25v85q0 9 8 13.5t16 -3.5l233 -233q13 -13 -1 -27l-225 -225q-9 -9 -20 -3.5t-11 17.5v82q0 8 4.5 12.5l10.5 10.5l67 62h-292q-8 0 -14 6t-6 14v77q0 8 6 14t14 6h294z" />
    <glyph glyph-name="arrowdown" unicode="&#x2193;" 
d="M214 511q0 8 6 14t14 6h77q8 0 14 -6t6 -14v-354l67 72q11 12 25 12h85q9 0 13.5 -8t-3.5 -16l-233 -233q-13 -13 -27 1l-225 225q-9 9 -3.5 20t17.5 11h82q8 0 12.5 -4.5l10.5 -10.5l62 -67v352z" />
    <glyph glyph-name="uni2196" unicode="&#x2196;" 
d="M483 118q5 -5 5 -14t-5 -14l-54 -55q-5 -5 -14 -5t-15 5l-248 248l4 -91q0 -9 -0.5 -15.5t-5.5 -11.5l-58 -58q-8 -8 -20 -4.5t-12 16.5v318q0 20 18 20h330q11 0 13.5 -9t-3.5 -15l-60 -60q-10 -10 -26 -9l-99 3z" />
    <glyph glyph-name="uni2197" unicode="&#x2197;" 
d="M316 367l-99 -3q-17 0 -26 9l-60 60q-6 6 -3.5 15t13.5 9h330q18 0 18 -20v-318q0 -13 -12 -16.5t-20 4.5l-58 58q-5 5 -5.5 11.5t-0.5 15.5l4 91l-248 -248q-6 -5 -15 -5t-14 5l-54 55q-5 5 -5 14t5 14z" />
    <glyph glyph-name="uni2198" unicode="&#x2198;" 
d="M66 386q-5 5 -5 14t5 14l54 55q5 5 14 5.5t15 -5.5l248 -248l-4 91q0 9 0.5 15.5t5.5 11.5l58 58q8 8 20 4.5t12 -16.5v-318q0 -20 -18 -20h-330q-11 0 -13.5 9t3.5 15l60 60q9 9 26 9l99 -3z" />
    <glyph glyph-name="uni2199" unicode="&#x2199;" 
d="M233 137l99 3q17 0 26 -9l60 -60q6 -6 3.5 -15t-13.5 -9h-330q-18 0 -18 20v318q0 13 12 16.5t20 -4.5l58 -58q5 -5 5.5 -11.5t0.5 -15.5l-4 -91l248 248q6 5 15 5t14 -5l54 -55q5 -5 5 -14t-5 -14z" />
    <glyph glyph-name="partialdiff" unicode="&#x2202;" 
d="M275 120q39 0 62.5 23.5t26.5 62.5q1 19 0 39q-3 39 -26.5 64.5t-62.5 25.5t-62.5 -25.5t-26.5 -64.5q-1 -20 0 -39q3 -39 26.5 -62.5t62.5 -23.5zM173 570q-8 0 -14 6t-6 14v90q0 8 6 14t14 6h66q176 0 238 -220q7 -26 12 -60.5t7 -71.5t1.5 -74t-4.5 -68
q-5 -45 -20 -84.5t-41 -69t-65 -46.5t-92 -17q-46 0 -86.5 17t-71 46.5t-48 69.5t-17.5 86v35q0 46 17.5 85.5t48 69t71 46t86.5 16.5q9 0 22.5 -2.5t23.5 -7.5q8 -5 15.5 -1.5t7.5 14.5q0 26 -9.5 46t-25 33.5t-34 20.5t-36.5 7h-66z" />
    <glyph glyph-name="uni2206" unicode="&#x2206;" 
d="M37 0q-8 0 -14 6t-6 14v51q0 8 2.5 16.5t4.5 12.5l200 585q4 15 19 15h64q14 0 19 -15l200 -585q2 -4 4.5 -12.5t2.5 -16.5v-51q0 -8 -6 -14t-14 -6h-476zM391 118q8 0 4 10l-115 373q-2 4 -4 4h-2q-4 0 -4 -4l-115 -373q-4 -10 4 -10h232z" />
    <glyph glyph-name="product" unicode="&#x220f;" 
d="M357 550q0 10 -10 10h-136q-10 0 -10 -10v-730q0 -8 -6 -14t-14 -6h-82q-8 0 -14 6t-6 14v860q0 8 6 14t14 6h360q8 0 14 -6t6 -14v-860q0 -8 -6 -14t-14 -6h-82q-8 0 -14 6t-6 14v730z" />
    <glyph glyph-name="summation" unicode="&#x2211;" 
d="M94 541q-2 4 -5.5 11.5t-3.5 18.5v109q0 8 6 14t14 6h343q8 0 14 -6t6 -14v-100q0 -8 -6 -14t-14 -6h-203q-8 0 -9.5 -4t0.5 -8l172 -268q5 -9 6.5 -18.5t-6.5 -21.5l-182 -287q-2 -4 0 -8.5t9 -4.5h215q8 0 14 -6t6 -14v-100q0 -8 -6 -14t-14 -6h-355q-8 0 -14 6t-6 14
v109q0 11 3.5 18.5t5.5 11.5l185 290q3 5 2.5 11t-2.5 10z" />
    <glyph glyph-name="minus" unicode="&#x2212;" 
d="M480 325q8 0 14 -6t6 -14v-89q0 -8 -6 -14t-14 -6h-410q-8 0 -14 6t-6 14v89q0 8 6 14t14 6h410z" />
    <glyph glyph-name="radical" unicode="&#x221a;" 
d="M604 860q8 0 14 -6t6 -14v-60q0 -8 -6 -14t-14 -6h-112l-215 -745q-5 -15 -19 -15h-96q-15 0 -19 15l-118 371q-2 8 2.5 16t16.5 8h85q15 0 19 -15l55 -228q1 -6 6 -6h2q4 0 6 6l185 678q4 15 19 15h183z" />
    <glyph glyph-name="infinity" unicode="&#x221e;" 
d="M267 343q2 -4 4.5 -7.5t8.5 -3.5q9 0 13 11q6 15 16.5 30t25.5 27.5t33.5 20t39.5 7.5q61 0 95 -47t34 -122t-34 -122.5t-95 -47.5q-20 0 -37.5 9.5t-32.5 23t-26 28t-17 25.5t-13 11q-6 0 -9.5 -3.5t-5.5 -7.5q-18 -37 -46 -61.5t-69 -24.5q-61 0 -95 47.5t-34 122.5
t34 122t95 47q21 0 39.5 -7.5t33.5 -20t25.5 -27.5t16.5 -30zM440 259q0 29 -10 45t-25 16q-12 0 -23 -10t-19 -21q-10 -13 -18 -30q8 -18 18 -31q8 -12 19 -21.5t23 -9.5q15 0 25 16.5t10 45.5zM120 259q0 -29 10 -45.5t25 -16.5q12 0 23 9.5t19 21.5q10 13 18 31
q-8 17 -18 30q-8 11 -19 21t-23 10q-15 0 -25 -16t-10 -45z" />
    <glyph glyph-name="integral" unicode="&#x222b;" 
d="M204 520q0 45 15 80t42 58.5t63.5 36t79.5 12.5h40q8 0 14 -6t6 -14v-72q0 -8 -6 -14t-14 -6h-40q-42 0 -61 -16.5t-19 -58.5v-533q0 -45 -15 -80t-42 -58.5t-63.5 -36t-79.5 -12.5h-40q-8 0 -14 6t-6 14v72q0 8 6 14t14 6h40q45 0 62.5 17.5t17.5 57.5v533z" />
    <glyph glyph-name="approxequal" unicode="&#x2248;" 
d="M161 300q-8 0 -20.5 -2t-24.5 -5.5t-22.5 -8.5t-14.5 -10q-8 -10 -18.5 -8t-10.5 17v80q0 13 10.5 24.5t26.5 19.5t35.5 12.5t38.5 4.5q39 0 64.5 -7t48 -15.5t48.5 -15.5t67 -7q8 0 20.5 2t24.5 5.5t22.5 8.5t14.5 10q8 10 18.5 8t10.5 -17v-80q0 -14 -10.5 -25
t-26.5 -19t-35.5 -12.5t-38.5 -4.5q-39 0 -64.5 7t-48 15.5t-49 15.5t-66.5 7zM161 110q-8 0 -20.5 -2t-24.5 -5.5t-22.5 -8.5t-14.5 -10q-8 -10 -18.5 -8t-10.5 17v80q0 13 10.5 24.5t26.5 19.5t35.5 12.5t38.5 4.5q39 0 64.5 -7t48 -15.5t48.5 -15.5t67 -7q8 0 20.5 2
t24.5 5.5t22.5 8.5t14.5 10q8 10 18.5 8t10.5 -17v-80q0 -14 -10.5 -25t-26.5 -19t-35.5 -12.5t-38.5 -4.5q-39 0 -64.5 7t-48 15.5t-49 15.5t-66.5 7z" />
    <glyph glyph-name="notequal" unicode="&#x2260;" 
d="M475 214q8 0 14 -6t6 -14v-87q0 -8 -6 -14t-14 -6h-242q-6 0 -9 -2t-5 -5l-41 -55q-5 -8 -9.5 -11.5t-11.5 -3.5h-69q-10 0 -16.5 9t0.5 19l29 42q2 2 1 4.5t-6 2.5h-21q-8 0 -14 6t-6 14v87q0 8 6 14t14 6h106q6 0 9 2t5 5l41 58q2 2 1 4.5t-6 2.5h-156q-8 0 -14 6
t-6 14v87q0 8 6 14t14 6h241q6 0 9 2t5 5l39 55q5 8 8.5 11.5t10.5 3.5h72q10 0 16.5 -9t-0.5 -19l-30 -42q-2 -2 -1 -4.5t6 -2.5h24q8 0 14 -6t6 -14v-87q0 -8 -6 -14t-14 -6h-108q-6 0 -9 -2t-5 -5l-40 -58q-2 -2 -1 -4.5t6 -2.5h157z" />
    <glyph glyph-name="lessequal" unicode="&#x2264;" 
d="M454 315q15 -8 15 -21v-105q0 -12 -8 -17.5t-15 -1.5l-362 204q-7 4 -11 11t-4 21v29q0 14 4 21t11 11l362 203q7 4 15 -1.5t8 -17.5v-105q0 -12 -15 -21l-202 -101q-8 -4 0 -8zM472 129q8 0 14 -6t6 -14v-89q0 -8 -6 -14t-14 -6h-394q-8 0 -14 6t-6 14v89q0 8 6 14t14 6
h394z" />
    <glyph glyph-name="greaterequal" unicode="&#x2265;" 
d="M298 416q8 4 0 8l-202 101q-15 7 -15 21v105q0 12 8 17.5t15 1.5l362 -203q7 -4 11 -11t4 -21v-29q0 -14 -4 -21t-11 -11l-362 -204q-7 -4 -15 1.5t-8 17.5v105q0 13 15 21zM472 129q8 0 14 -6t6 -14v-89q0 -8 -6 -14t-14 -6h-394q-8 0 -14 6t-6 14v89q0 8 6 14t14 6h394
z" />
    <glyph glyph-name="lozenge" unicode="&#x25ca;" 
d="M321 15q-4 -7 -11 -11t-21 -4h-29q-14 0 -21 4t-11 11l-203 332q-5 9 0 16l203 332q4 7 11 11t21 4h29q14 0 21 -4t11 -11l204 -332q5 -8 0 -16zM279 527q-4 8 -8 0l-101 -172l101 -172q4 -8 8 0l101 172z" />
    <glyph glyph-name="commaaccent" unicode="&#xf6c3;" 
d="M81 -185q-8 0 -14 6t-6 14v100q0 8 6 14t14 6h100q8 0 14 -6t6 -14v-97q0 -20 -6.5 -37.5t-15.5 -31.5l-34 -54q-5 -7 -12 -13.5t-22 -6.5h-10q-15 0 -21.5 12t0.5 26l34 69q3 5 -0.5 9t-8.5 4h-24z" />
    <glyph glyph-name="asuperior" unicode="&#xf6e9;" 
d="M257 451q-7 0 -10.5 -4t-5 -8.5t-1.5 -8t0 -2.5q0 -22 30 -22q16 0 26 5.5t10 20.5v14q0 5 -5 5h-44zM276 543q-22 0 -30 -17l-4 -8t-11 -2h-46q-3 0 -6.5 3t-3.5 7q0 13 5.5 27t17.5 26t31.5 19.5t46.5 7.5q52 0 79 -26.5t27 -71.5v-148q0 -10 -10 -10h-31q-4 0 -7 4
q-2 3 -3 6t-7 3q-7 0 -20 -9.5t-41 -9.5q-42 0 -69 20t-27 65q0 10 5 23t16 24t28 19t40 8h43q2 0 4 2q1 1 1 3v7q0 11 -5.5 19.5t-22.5 8.5z" />
    <glyph glyph-name="bsuperior" unicode="&#xf6ea;" 
d="M274 421q12 0 17 4t6 11q1 15 1 39t-1 39q-1 7 -6 11t-17 4q-13 0 -17.5 -2.5t-5.5 -12.5q-2 -15 -2 -39t2 -39q1 -8 5.5 -11.5t17.5 -3.5zM284 344q-14 0 -22.5 3t-14 6t-9.5 6t-9 3q-4 0 -7.5 -3t-5.5 -5q-4 -4 -7 -4h-31q-10 0 -10 10v336q0 10 10 10h60q10 0 10 -10
v-89q0 -9 6 -10.5t12 1.5q8 4 13.5 6t19.5 2q32 0 54.5 -26t25.5 -66q2 -15 2 -39t-2 -39q-3 -40 -29.5 -66t-65.5 -26z" />
    <glyph glyph-name="dsuperior" unicode="&#xf6eb;" 
d="M275 421q13 0 17.5 3.5t5.5 11.5q2 15 2 39t-2 39q-1 10 -5.5 12.5t-17.5 2.5q-12 0 -17 -4t-6 -11q-1 -15 -1 -39t1 -39q1 -7 6 -11t17 -4zM266 344q-40 0 -66 26t-29 66q-2 15 -2 39t2 39q3 40 26.5 66t58.5 26q11 0 16 -2.5l11 -5.5q8 -4 13 -2t5 11v89q0 10 10 10h60
q10 0 10 -10v-336q0 -10 -10 -10h-31q-3 0 -7 4l-5 5t-7 3q-6 0 -10 -3t-9.5 -6t-13.5 -6t-22 -3z" />
    <glyph glyph-name="esuperior" unicode="&#xf6ec;" 
d="M243 447q0 -12 8.5 -24.5t25.5 -12.5q15 0 22 3t13 11q4 9 12 9h48q4 0 7 -2.5t1 -9.5q-12 -35 -35.5 -56t-67.5 -21q-47 0 -73 26.5t-32 65.5q-2 15 -2 39t2 39q6 39 32 65.5t73 26.5q45 0 74 -25t29 -73v-42q0 -10 -10 -10h-121q-6 0 -6 -9zM243 512q0 -4 5 -4h55
q5 0 5 4q0 9 -7 18.5t-25 9.5t-25.5 -10t-7.5 -18z" />
    <glyph glyph-name="isuperior" unicode="&#xf6ed;" 
d="M318 630q0 -8 -8 -8h-69q-8 0 -8 8v68q0 8 8 8h69q8 0 8 -8v-68zM187 521q-10 0 -10 10v59q0 10 10 10h120q3 0 4.5 -2t1.5 -4v-157q0 -5 5 -5h49q10 0 10 -10v-62q0 -10 -10 -10h-185q-10 0 -10 10v62q0 10 10 10h47q5 0 5 5v79q0 5 -5 5h-42z" />
    <glyph glyph-name="lsuperior" unicode="&#xf6ee;" 
d="M175 626q-10 0 -10 10v60q0 10 10 10h127q6 0 6 -6v-263q0 -5 5 -5h63q10 0 10 -10v-62q0 -10 -10 -10h-202q-10 0 -10 10v62q0 10 10 10h49q5 0 5 5v184q0 5 -5 5h-48z" />
    </font>
</defs>
</svg>
